<?xml version="1.0" standalone="no"?>
<!DOCTYPE svg PUBLIC "-//W3C//DTD SVG 1.1//EN" "http://www.w3.org/Graphics/SVG/1.1/DTD/svg11.dtd" >
<svg xmlns="http://www.w3.org/2000/svg">
<defs>
  <font id="flaticon" horiz-adv-x="300">
    <font-face font-family="flaticon"
      units-per-em="300" ascent="300"
      descent="0" />
    <missing-glyph horiz-adv-x="0" />
    <glyph glyph-name="001-delivery"
      unicode="&#xF101;"
      horiz-adv-x="300" d="M299.87 98.192C298.7 104.158 288.36 156.707 285.806 164.379C279.665 182.825 264.912 203.8233 246.341 220.5501C227.033 237.9408 207.028 247.915 191.455 247.915H39.9689C32.1182 247.915 25.7308 241.5276 25.7308 233.6769V211.3045H15.2418C11.3951 211.3045 8.27652 208.1859 8.27652 204.3393C8.27652 200.4927 11.3951 197.374 15.2418 197.374H25.7302V180.759H6.96524C3.11861 180.759 0 177.641 0 173.794C0 169.947 3.11861 166.829 6.96524 166.829H25.7302V96.851C25.7302 89 32.1176 82.614 39.9683 82.614H57.3342C59.9307 65.359 74.8539 52.087 92.8206 52.087C110.787 52.087 125.71 65.359 128.306 82.614H192.195C194.791 65.359 209.715 52.087 227.681 52.087C245.648 52.087 260.571 65.359 263.1670000000001 82.614H285.761C293.613 82.614 300 89 300 96.851C300 97.301 299.956 97.749 299.87 98.192zM271.791 162.224L200.018 162.225V232.7393C225.445 225.9103 260.688 192.081 271.791 162.224zM92.8212 66.017C80.7138 66.017 70.8631 75.867 70.8631 87.975C70.8631 100.082 80.7138 109.932 92.8212 109.932C104.929 109.932 114.779 100.082 114.779 87.975C114.778 75.867 104.929 66.017 92.8212 66.017zM227.682 66.017C215.575 66.018 205.724 75.868 205.724 87.975C205.724 100.082 215.575 109.932 227.682 109.932C239.789 109.932 249.64 100.082 249.64 87.975C249.64 75.867 239.789 66.017 227.682 66.017zM285.417 96.543C279.609 96.543 262.528 96.543 262.528 96.543C258.676 112.207 244.518 123.862 227.682 123.862C210.846 123.862 196.688 112.207 192.835 96.543H127.667C123.815 112.207 109.657 123.862 92.8212 123.862C75.9853 123.862 61.8271 112.207 57.9744 96.543H39.9689C39.7994 96.543 39.6613 96.682 39.6613 96.851V166.828H125.021C128.868 166.828 131.986 169.947 131.986 173.793C131.986 177.64 128.868 180.759 125.021 180.759H39.6607V197.373H78.9507C82.7973 197.373 85.9159 200.4921 85.9159 204.3387C85.9159 208.1853 82.7973 211.3039 78.9507 211.3039H39.6607V233.6763C39.6607 233.8459 39.7988 233.984 39.9683 233.984H186.087V155.26C186.087 151.413 189.206 148.295 193.053 148.295L275.397 148.294C278.367 134.751 282.441 113.043 285.909 96.973C285.979 96.649 285.777 96.543 285.417 96.543z" />
    <glyph glyph-name="002-bicycle"
      unicode="&#xF102;"
      horiz-adv-x="300" d="M291.862 54.336C288.878 55.59 285.443 54.191 284.188 51.207C275.956 31.64 256.92 18.996 235.692 18.996C210.223 18.996 188.928 37.197 184.121 61.273C184.125 61.366 184.135 61.457 184.135 61.551C184.135 64.132 183.797 66.634 183.167 69.02C183.126 69.87 183.103 70.725 183.103 71.585C183.103 93.581 196.679 112.463 215.891 120.3L230.052 69.997C230.78 67.413 233.131 65.724 235.689 65.724C236.215 65.724 236.749 65.795 237.28 65.945C240.395 66.822 242.21 70.058 241.333 73.173L227.171 123.479C229.945 123.934 232.791 124.173 235.692 124.173C256.617 124.173 275.546 111.779 283.917 92.596C285.211 89.63 288.664 88.276 291.63 89.57C294.596 90.864 295.952 94.318 294.657 97.284C284.4220000000001 120.737 261.277 135.892 235.692 135.892C231.693 135.892 227.778 135.522 223.978 134.819L223.476 136.603C221.781 142.625 220.516 148.751 219.682 154.936C219.682 154.938 219.681 154.941 219.681 154.943C219.198 158.523 218.858 162.122 218.667 165.732C219.2 163.045 221.571 161.02 224.414 161.02H232.42C243.503 161.02 252.521 170.037 252.521 181.121C252.521 192.204 243.503 201.222 232.42 201.222H214.844L169.906 241.0423C172.238 240.3655 174.698 239.9952 177.245 239.9952C191.783 239.9952 203.612 251.8235 203.612 266.3624C203.612 280.9012 191.783 292.72949 177.245 292.72949C162.706 292.72949 150.877 280.9012 150.877 266.3624C150.877 261.4083 152.253 256.7712 154.639 252.8073C150.446 254.7169 145.859 255.7294 141.115 255.7294C132.392 255.7294 124.192 252.3321 118.023 246.1645L70.0458 198.187C70.0329 198.175 70.0229 198.159 70.01 198.146C69.8559 197.989 69.7094 197.822 69.5717 197.646C69.5559 197.626 69.5383 197.607 69.5231 197.586C69.5172 197.579 69.5108 197.572 69.5055 197.565C66.4592 193.513 64.7196 188.66 64.351 183.425H52.8356C49.5995 183.425 46.9763 180.801 46.9763 177.565V170.395C46.9763 158.195 56.902 148.269 69.103 148.269H76.0499L73.0452 135.294C70.1864 135.684 67.2702 135.891 64.3065 135.891C28.848 135.892 0 107.044 0 71.585C0 49.876 10.8146 30.647 27.338 18.997H5.85936C2.62324 18.997 0 16.373 0 13.138C0 9.902 2.62324 7.278 5.85936 7.278H64.3071C96.1 7.278 122.574 30.471 127.71 60.825C128.068 57.932 130.53 55.692 133.519 55.692H173.374C177.214 40.645 186.373 27.705 198.723 18.997H161.523C158.287 18.997 155.664 16.373 155.664 13.138C155.664 9.902 158.287 7.278 161.523 7.278H235.693C261.649 7.278 284.924 22.738 294.991 46.663C296.245 49.646 294.844 53.08 291.862 54.336zM218.48 189.504H232.419C237.0410000000001 189.504 240.802 185.745 240.802 181.122C240.802 176.5 237.042 172.74 232.419 172.74H224.414C221.382 172.74 218.888 170.438 218.585 167.486C218.515 169.253 218.48 171.02 218.48 172.79V189.504zM207.329 159.989H148.604C147.665 161.109 146.68 162.196 145.638 163.239L127.172 181.706L151.5 206.0349L206.929 165.884C207.023 163.916 207.155 161.95 207.329 159.989zM198.682 148.27L162.778 115.746L159.357 137.005C159.351 137.046 159.344 137.087 159.336 137.128C158.628 141 157.471 144.731 155.907 148.27H198.682zM177.245 281.0119000000001C185.322 281.0119000000001 191.893 274.4407 191.893 266.3635C191.893 258.2864 185.322 251.7151 177.245 251.7151C169.167 251.7151 162.596 258.2864 162.596 266.3635C162.596 274.4407 169.167 281.0119000000001 177.245 281.0119000000001zM126.31 237.8788C130.264 241.8339 135.522 244.0118 141.115 244.0118C146.707 244.0118 151.965 241.8339 155.921 237.8782L206.762 192.727V180.476L154.328 218.4562C153.296 219.2033 152.091 219.5701 150.893 219.5701C149.383 219.5701 147.882 218.9888 146.748 217.8538L117.156 188.261L97.6012 193.66L85.4471 197.016L126.31 237.8788zM69.103 159.989C63.3643 159.989 58.695 164.658 58.695 170.397V171.707H65.728C67.0305 167.389 69.1522 163.39 71.895 159.989H69.103zM64.3071 18.997C35.3097 18.997 11.7187 42.587 11.7187 71.585C11.7187 100.583 35.3097 124.174 64.3071 124.174C66.3637 124.174 68.3922 124.051 70.3885 123.82L58.5989 72.907C58.1958 71.166 58.6089 69.337 59.7204 67.938C60.8319 66.54 62.5206 65.725 64.3071 65.725H116.567C113.644 39.476 91.324 18.997 64.3071 18.997zM71.6782 77.445L81.8049 121.177C100.457 114.576 114.307 97.736 116.567 77.445H71.6782V77.445zM84.4633 132.653L88.0604 148.189L116.144 131.973L125.366 91.772C118.982 111.031 103.726 126.28 84.4633 132.653zM126.995 137.081C126.631 138.667 125.624 140.03 124.214 140.845L86.2815 162.748C81.4416 165.543 77.6647 171.053 76.4254 177.128C75.6807 180.778 75.9022 184.234 77.0325 187.182L94.0961 182.471L115.836 176.469L137.352 154.952C142.792 149.514 146.403 142.643 147.798 135.08L154.917 90.846C154.891 90.846 154.865 90.847 154.839 90.847H137.601V90.848L126.995 137.081zM139.378 67.411V79.129H154.838C162.478 79.129 168.994 74.231 171.413 67.411H139.378zM172.736 84.721C171.038 86.036 169.194 87.169 167.23 88.09L165 101.947L209.928 142.645C210.584 139.552 211.338 136.478 212.196 133.429L212.7 131.639C192.533 123.892 177.226 106.269 172.736 84.721zM294.141 77.441C290.905 77.441 288.282 74.818 288.282 71.582L288.281 71.307C288.272 68.072 290.888 65.44 294.124 65.431C294.13 65.431 294.135 65.431 294.141 65.431C297.369 65.431 299.991 68.043 300.0010000000001 71.273L300.0010000000001 71.582C300.0010000000001 74.818 297.377 77.441 294.141 77.441zM142.619 17.272C141.529 18.368 140.023 18.989 138.477 18.989C136.936 18.989 135.424 18.368 134.334 17.272C133.244 16.183 132.617 14.676 132.617 13.13C132.617 11.589 133.244 10.077 134.334 8.987C135.424 7.898 136.936 7.271 138.477 7.271C140.018 7.271 141.529 7.897 142.619 8.987C143.715 10.077 144.336 11.589 144.336 13.13C144.336 14.677 143.715 16.183 142.619 17.272z" />
    <glyph glyph-name="003-bookmark"
      unicode="&#xF103;"
      horiz-adv-x="300" d="M202.125 271.875H97.875C79.78125 271.875 65.625 260.25 65.625 245.34375V54.65625A26.90625 26.90625 0 0 1 85.59375 30.09375A21.75 21.75 0 0 1 109.3125 36.9375L150 88.3125L190.875 36.9375A21.75 21.75 0 0 1 214.59375 30.09375A26.90625 26.90625 0 0 1 234.375 54.65625V245.34375C234.375 260.25 220.21875 271.875 202.125 271.875zM215.625 54.65625C215.625 52.03125 212.71875 49.3125 208.40625 47.90625A3 3 0 0 0 205.3125 48.5625L164.4375 100.03125A18.75 18.75 0 0 1 135.5625 100.03125L94.6875 48.5625A3.1875 3.1875 0 0 0 91.5 47.90625C87.28125 49.3125 84.375 52.03125 84.375 54.65625V245.34375C84.375 249 90.09375 253.125 97.875 253.125H202.125C209.90625 253.125 215.625 249 215.625 245.34375z" />
    <glyph glyph-name="004-like"
      unicode="&#xF104;"
      horiz-adv-x="300" d="M248.8125 227.4375A70.5 70.5 0 0 1 150 239.90625A70.5 70.5 0 0 1 51.1875 227.4375A71.71875 71.71875 0 0 1 58.59375 132.75L142.96875 48.375A9.375 9.375 0 0 1 156.28125 48.375L240.6562500000001 132.75A71.71875 71.71875 0 0 1 248.8125000000001 227.4375zM228.09375 146.0625L150 67.96875L71.90625 146.0625A52.96875 52.96875 0 0 0 65.625 215.625A51.375 51.375 0 0 0 103.125 235.59375H106.21875A51.46875 51.46875 0 0 0 142.78125 220.40625A9.375 9.375 0 0 1 156.09375 220.40625A51.65625 51.65625 0 0 0 234.375 215.625A52.96875 52.96875 0 0 0 228.09375 146.0625z" />
    <glyph glyph-name="005-microphone"
      unicode="&#xF105;"
      horiz-adv-x="300" d="M253.125 168.75A9.375 9.375 0 0 1 234.375 168.75C234.375 132.5625 196.875 103.125 150 103.125S65.625 132.5625 65.625 168.75A9.375 9.375 0 0 1 46.875 168.75C46.875 124.78125 88.125 88.6875 140.625 84.375V37.5A9.375 9.375 0 0 1 159.375 37.5V84.375C211.875 88.6875 253.125 124.78125 253.125 168.75zM150 121.875A56.25 56.25 0 0 1 206.25 178.125V215.625A56.25 56.25 0 0 1 93.75 215.625V178.125A56.25 56.25 0 0 1 150 121.875zM112.5 215.625A37.5 37.5 0 0 0 187.5 215.625V178.125A37.5 37.5 0 0 0 112.5 178.125z" />
    <glyph glyph-name="006-location"
      unicode="&#xF106;"
      horiz-adv-x="300" d="M150 271.875A103.125 103.125 0 0 1 46.875 168.75C46.875 113.25 139.96875 33.75 143.90625 30.375A9.375 9.375 0 0 1 156.09375 30.375C160.03125 33.75 253.125 113.25 253.125 168.75A103.125 103.125 0 0 1 150 271.875zM150 49.96875C121.875 75 65.625 132.65625 65.625 168.75A84.375 84.375 0 0 0 234.375 168.75C234.375 132.65625 178.125 75 150 49.96875zM150 225A46.875 46.875 0 1 1 196.875 178.125A46.875 46.875 0 0 1 150 225zM150 150A28.125 28.125 0 1 0 178.125 178.125A28.125 28.125 0 0 0 150 150z" />
    <glyph glyph-name="007-gallery"
      unicode="&#xF107;"
      horiz-adv-x="300" d="M245.53125 253.125H54.46875A26.34375 26.34375 0 0 1 28.125 226.78125V73.21875A26.34375 26.34375 0 0 1 54.46875 46.875H245.53125A26.34375 26.34375 0 0 1 271.875 73.21875V226.78125A26.34375 26.34375 0 0 1 245.53125 253.125zM46.875 226.78125A7.59375 7.59375 0 0 0 54.46875 234.375H245.53125A7.59375 7.59375 0 0 0 253.125 226.78125V168.75L220.78125 211.875A9.375 9.375 0 0 1 205.78125 211.875L162.9375 154.6875L148.125 174.375A9.375 9.375 0 0 1 133.125 174.375L51.9375 65.625A7.6875 7.6875 0 0 0 46.875 73.21875zM206.25 65.625H75L140.625 153.09375zM245.53125 65.625H229.6875L174.5625 139.03125L213.28125 190.59375L253.125 137.53125V73.21875A7.59375 7.59375 0 0 0 245.53125 65.625zM65.625 196.875A18.75 18.75 0 0 1 103.125 196.875A18.75 18.75 0 0 1 65.625 196.875" />
    <glyph glyph-name="008-share"
      unicode="&#xF108;"
      horiz-adv-x="300" d="M215.625 112.5A37.5 37.5 0 0 1 190.78125 103.125L138.75 137.8125A42.375 42.375 0 0 1 138.75 162.75L190.78125 196.875A37.5 37.5 0 1 1 178.125 225A36.09375 36.09375 0 0 1 180.375 212.71875L130.125 179.25A46.875 46.875 0 1 1 130.125 120.75L180.375 87.28125A36.09375 36.09375 0 0 1 178.125 75A37.5 37.5 0 1 1 215.625 112.5zM215.625 243.75A18.75 18.75 0 1 0 196.875 225A18.75 18.75 0 0 0 215.625 243.75zM93.75 121.875A28.125 28.125 0 1 0 121.875 150A28.125 28.125 0 0 0 93.75 121.875zM215.625 56.25A18.75 18.75 0 1 0 234.375 75A18.75 18.75 0 0 0 215.625 56.25z" />
    <glyph glyph-name="009-star"
      unicode="&#xF109;"
      horiz-adv-x="300" d="M245.15625 145.96875A26.4375 26.4375 0 0 1 251.8125 173.15625A26.15625 26.15625 0 0 1 230.4375 191.25L195.5625 196.3125A7.78125 7.78125 0 0 0 189.75 200.53125L174.1875 232.125A26.4375 26.4375 0 0 1 150 246.9375A26.53125 26.53125 0 0 1 126.5625 232.125L111 200.53125A7.78125 7.78125 0 0 0 105.1875 196.3125L70.3125 191.25A26.15625 26.15625 0 0 1 48.9375 173.15625A26.4375 26.4375 0 0 1 55.59375 145.96875L80.8125 121.40625A7.5 7.5 0 0 0 83.0625 114.5625L77.0625 79.875A26.53125 26.53125 0 0 1 115.59375 51.75L146.8125 68.0625A7.40625 7.40625 0 0 0 153.9375 68.0625L185.15625 51.75A26.53125 26.53125 0 0 1 223.6875 79.875L217.6875 114.5625A7.5 7.5 0 0 0 219.9375 121.40625zM206.8125 134.90625A26.53125 26.53125 0 0 1 199.125 111.375L205.125 76.6875A7.78125 7.78125 0 0 0 193.875 68.53125L162.75 84.9375A26.34375 26.34375 0 0 1 138 84.9375L106.875 68.53125A7.78125 7.78125 0 0 0 95.625 76.6875L101.625 111.375A26.53125 26.53125 0 0 1 93.75 134.90625L68.71875 159.375A7.40625 7.40625 0 0 0 66.84375 167.25A7.21875 7.21875 0 0 0 73.03125 172.5L107.90625 177.5625A26.8125 26.8125 0 0 1 127.875 192.09375L143.4375 223.78125A7.5 7.5 0 0 0 150 228.09375A7.5 7.5 0 0 0 156.9375 223.78125L172.5 192.1875A26.8125 26.8125 0 0 1 192.46875 177.65625L227.34375 172.59375A7.21875 7.21875 0 0 0 233.53125 167.34375A7.40625 7.40625 0 0 0 231.65625 159.46875z" />
    <glyph glyph-name="010-trash-bin"
      unicode="&#xF10A;"
      horiz-adv-x="300" d="M121.875 157.125A9.375 9.375 0 0 1 112.5 147.75V92.625A9.375 9.375 0 1 1 131.25 92.625V147.75A9.375 9.375 0 0 1 121.875 157.125zM178.125 157.125A9.375 9.375 0 0 1 168.75 147.75V92.625A9.375 9.375 0 1 1 187.5 92.625V147.75A9.375 9.375 0 0 1 178.125 157.125zM253.125 234.375H205.3125A46.875 46.875 0 0 1 159.375 271.875H140.625A46.875 46.875 0 0 1 94.6875 234.375H46.875A9.375 9.375 0 0 1 46.875 215.625H56.25V56.25A27.28125 27.28125 0 0 1 82.5 28.125H217.5A27.28125 27.28125 0 0 1 243.7500000000001 56.25V215.625H253.1250000000001A9.375 9.375 0 0 1 253.1250000000001 234.375zM140.625 253.125H159.375A28.125 28.125 0 0 0 185.90625 234.375H114.09375A28.125 28.125 0 0 0 140.625 253.125zM225 56.25A8.71875 8.71875 0 0 0 217.5 46.875H82.5A8.71875 8.71875 0 0 0 75 56.25V215.625H225z" />
    <glyph glyph-name="011-user-2"
      unicode="&#xF10B;"
      horiz-adv-x="300" d="M150 140.625A65.625 65.625 0 1 1 84.375 206.25A65.625 65.625 0 0 1 150 140.625zM150 253.125A46.875 46.875 0 1 0 103.125 206.25A46.875 46.875 0 0 0 150 253.125zM159.375 131.25H140.625A93.75 93.75 0 0 1 46.875 37.5A9.375 9.375 0 0 1 56.25 28.125H243.75A9.375 9.375 0 0 1 253.125 37.5A93.75 93.75 0 0 1 159.375 131.25zM66.1875 46.875A75 75 0 0 0 140.625 112.5H159.375A75 75 0 0 0 233.8125 46.875z" />
    <glyph glyph-name="012-view"
      unicode="&#xF10C;"
      horiz-adv-x="300" d="M279.65625 155.90625C277.125 159.375 218.25 234.375 150 234.375C85.125 234.375 23.15625 159.375 20.53125 156.1875A9.84375 9.84375 0 0 1 20.53125 143.8125C23.15625 140.625 85.125 65.625 150 65.625S276.9375 140.625 279.46875 144.28125A9.375 9.375 0 0 1 279.65625 155.90625zM150 84.375C104.25 84.375 56.71875 132.28125 41.0625 150C56.71875 167.34375 104.25 215.625 150 215.625C198.28125 215.625 244.21875 167.71875 259.125 150C243.75 132.9375 196.875 84.375 150 84.375zM150 196.875A46.875 46.875 0 1 1 196.875 150A46.875 46.875 0 0 1 150 196.875zM150 121.875A28.125 28.125 0 1 0 178.125 150A28.125 28.125 0 0 0 150 121.875z" />
    <glyph glyph-name="013-user"
      unicode="&#xF10D;"
      horiz-adv-x="300" d="M150 159.375A56.25 56.25 0 1 1 93.75 215.625A56.25 56.25 0 0 1 150 159.375zM150 253.125A37.5 37.5 0 1 0 112.5 215.625A37.5 37.5 0 0 0 150 253.125zM239.4375 59.8125L228.46875 114.84375A34.59375 34.59375 0 0 1 193.40625 140.625H106.59375A34.59375 34.59375 0 0 1 71.53125 114.84375L60.5625 59.8125A26.25 26.25 0 0 1 65.625 37.5A26.625 26.625 0 0 1 86.0625 28.125H213.5625A26.34375 26.34375 0 0 1 239.4374999999999 59.8125zM219.46875 49.6875A7.6875 7.6875 0 0 0 213.5625 46.875H196.875V56.25A9.375 9.375 0 0 1 178.125 56.25V46.875H121.875V56.25A9.375 9.375 0 0 1 103.125 56.25V46.875H86.4375A7.6875 7.6875 0 0 0 78.9375 56.25L89.90625 111.28125A16.21875 16.21875 0 0 0 106.59375 121.875H193.40625A16.21875 16.21875 0 0 0 210.09375 111.1875L221.0625 56.25A7.59375 7.59375 0 0 0 219.46875 49.6875z" />
    <glyph glyph-name="014-pin"
      unicode="&#xF10E;"
      horiz-adv-x="300" d="M269.34375 203.0625L203.0625 269.34375A9.375 9.375 0 0 1 189.75 256.03125L196.40625 249.46875L146.53125 199.59375A84.375 84.375 0 0 1 50.53125 183.1875A9.375 9.375 0 0 1 50.53125 169.875L103.59375 116.8125L40.21875 53.53125A9.375 9.375 0 0 1 40.21875 40.21875A9.375 9.375 0 0 1 53.53125 40.21875L116.8125 103.125L169.8750000000001 50.0625A9.375 9.375 0 0 1 176.5312500000001 47.34375A9.375 9.375 0 0 1 183.1875000000001 50.0625A84.375 84.375 0 0 1 199.5937500000001 146.0625L249.4687500000001 195.9375L256.0312500000001 189.28125A9.375 9.375 0 0 1 269.3437500000001 189.28125A9.375 9.375 0 0 1 269.3437500000001 203.0625zM181.40625 154.875A9.375 9.375 0 0 1 180 143.53125A65.625 65.625 0 0 0 176.0625 70.96875L123.46875 123.46875L70.96875 176.0625A65.625 65.625 0 0 0 143.53125 180A9.375 9.375 0 0 1 154.875 181.40625L209.625 236.15625L236.1562500000001 209.625z" />
    <glyph glyph-name="015-chat"
      unicode="&#xF10F;"
      horiz-adv-x="300" d="M243.75 262.5H56.25A27.375 27.375 0 0 1 28.125 235.6875V111.1875A27.375 27.375 0 0 1 56.25 84.375H108.46875L143.15625 43.40625A9.375 9.375 0 0 1 157.40625 43.40625L191.8125 84.375H243.75A27.375 27.375 0 0 1 271.875 111.1875V235.6875A27.375 27.375 0 0 1 243.75 262.5zM253.125 111.1875A8.71875 8.71875 0 0 0 243.75 103.125H187.5A9.375 9.375 0 0 1 180.375 99.84375L150 64.03125L119.625 99.84375A9.375 9.375 0 0 1 112.5 103.125H56.25A8.71875 8.71875 0 0 0 46.875 111.1875V235.6875A8.71875 8.71875 0 0 0 56.25 243.75H243.75A8.71875 8.71875 0 0 0 253.125 235.6875z" />
    <glyph glyph-name="016-home"
      unicode="&#xF110;"
      horiz-adv-x="300" d="M253.125 181.40625L156.28125 269.4375A9.375 9.375 0 0 1 143.71875 269.4375L46.875 181.125A28.125 28.125 0 0 1 37.5 160.6875V54.375A27.1875 27.1875 0 0 1 65.625 28.125H121.875A9.375 9.375 0 0 1 131.25 37.5V84.375H168.75V37.5A9.375 9.375 0 0 1 178.125 28.125H234.375A27.1875 27.1875 0 0 1 262.5 54.375V160.21875A28.125 28.125 0 0 1 253.125 181.40625zM243.75 54.375A8.53125 8.53125 0 0 0 234.375 46.875H187.5V93.75A9.375 9.375 0 0 1 178.125 103.125H121.875A9.375 9.375 0 0 1 112.5 93.75V46.875H65.625A8.53125 8.53125 0 0 0 56.25 54.375V160.6875A8.71875 8.71875 0 0 0 59.15625 167.25L150 249.84375L240.5625 167.53125A9.375 9.375 0 0 0 243.75 160.21875z" />
    <glyph glyph-name="017-mail"
      unicode="&#xF111;"
      horiz-adv-x="300" d="M245.53125 253.125H54.46875A26.34375 26.34375 0 0 1 28.125 226.78125V73.21875A26.34375 26.34375 0 0 1 54.46875 46.875H245.53125A26.34375 26.34375 0 0 1 271.875 73.21875V226.78125A26.34375 26.34375 0 0 1 245.53125 253.125zM236.15625 234.375L156.5625 167.71875A10.21875 10.21875 0 0 0 143.4375 167.71875L63.46875 234.375zM245.53125 65.625H54.46875A7.59375 7.59375 0 0 0 46.875 73.21875V223.78125L131.25 153.28125A28.875 28.875 0 0 1 168.75 153.28125L253.125 223.78125V73.21875A7.59375 7.59375 0 0 0 245.53125 65.625z" />
    <glyph glyph-name="018-settings"
      unicode="&#xF112;"
      horiz-adv-x="300" d="M255 187.5H240.5625L250.78125 197.71875A16.96875 16.96875 0 0 1 250.78125 221.625L221.625 250.78125A17.34375 17.34375 0 0 1 197.71875 250.78125L187.5 240.5625V255A16.96875 16.96875 0 0 1 170.625 271.875H129.375A16.96875 16.96875 0 0 1 112.5 255V240.5625L102.28125 250.78125A16.96875 16.96875 0 0 1 78.375 250.78125L49.21875 221.625A16.96875 16.96875 0 0 1 49.21875 197.71875L59.4375 187.5H45A16.96875 16.96875 0 0 1 28.125 170.625V129.375A16.96875 16.96875 0 0 1 45 112.5H59.4375L49.21875 102.28125A16.96875 16.96875 0 0 1 49.21875 78.375L78.375 49.21875A16.96875 16.96875 0 0 1 102.28125 49.21875L112.5 59.4375V45A16.96875 16.96875 0 0 1 129.375 28.125H170.625A16.96875 16.96875 0 0 1 187.5 45V59.4375L197.71875 49.21875A17.34375 17.34375 0 0 1 221.625 49.21875L250.78125 78.375A16.96875 16.96875 0 0 1 250.78125 102.28125L240.5625 112.5H255A16.96875 16.96875 0 0 1 271.875 129.375V170.625A16.96875 16.96875 0 0 1 255 187.5zM253.125 131.25H236.0625A16.875 16.875 0 0 1 224.0625 102.46875L236.15625 90.375L209.625 63.84375L197.625 75.9375A16.875 16.875 0 0 1 168.75 63.9375V46.875H131.25V63.9375A16.875 16.875 0 0 1 102.46875 75.9375L90.375 63.84375L63.84375 90.375L75.9375 102.46875A16.875 16.875 0 0 1 63.9375 131.25H46.875V168.75H63.9375A16.875 16.875 0 0 1 75.9375 197.53125L63.84375 209.625L90.375 236.15625L102.46875 224.0625A16.875 16.875 0 0 1 131.25 236.0625V253.125H168.75V236.0625A16.875 16.875 0 0 1 197.53125 224.0625L209.625 236.15625L236.15625 209.625L224.0625 197.53125A16.875 16.875 0 0 1 236.0625 168.75H253.125zM150 206.25A56.25 56.25 0 1 1 206.25 150A56.25 56.25 0 0 1 150 206.25zM150 112.5A37.5 37.5 0 1 0 187.5 150A37.5 37.5 0 0 0 150 112.5z" />
    <glyph glyph-name="019-alignment-right"
      unicode="&#xF113;"
      horiz-adv-x="300" d="M245.0625 262.5H54.9375A26.8125 26.8125 0 0 1 28.125 235.6875V64.3125A26.8125 26.8125 0 0 1 54.9375 37.5H245.0625A26.8125 26.8125 0 0 1 271.875 64.3125V235.6875A26.8125 26.8125 0 0 1 245.0625 262.5zM253.125 64.3125A8.15625 8.15625 0 0 0 245.0625 56.25H54.9375A8.15625 8.15625 0 0 0 46.875 64.3125V235.6875A8.15625 8.15625 0 0 0 54.9375 243.75H245.0625A8.15625 8.15625 0 0 0 253.125 235.6875zM215.625 206.25H84.375A9.375 9.375 0 0 1 84.375 187.5H215.625A9.375 9.375 0 0 1 215.625 206.25zM215.625 159.375H84.375A9.375 9.375 0 0 1 84.375 140.625H215.625A9.375 9.375 0 0 1 215.625 159.375zM215.625 112.5H159.375A9.375 9.375 0 0 1 159.375 93.75H215.625A9.375 9.375 0 0 1 215.625 112.5z" />
    <glyph glyph-name="020-link"
      unicode="&#xF114;"
      horiz-adv-x="300" d="M255.1875 243.75L243.75 255.1875A38.71875 38.71875 0 0 1 189 255.1875L150.84375 217.21875A38.90625 38.90625 0 0 1 150 163.3125L136.6875 150A38.90625 38.90625 0 0 1 82.78125 149.25L45.28125 111.1875A38.71875 38.71875 0 0 1 45.28125 56.4375L56.25 44.8125000000001A38.71875 38.71875 0 0 1 111 44.8125000000001L149.0625 82.3125000000001A38.90625 38.90625 0 0 1 150 136.6875000000001L163.3125 150.0000000000001A38.8125 38.8125 0 0 1 217.21875 150.7500000000001L254.71875 188.8125000000001A38.71875 38.71875 0 0 1 255.1875 243.7500000000001zM135.84375 96.09375L97.875 58.03125A20.0625 20.0625 0 0 0 69.75 58.03125L58.03125 69.5625A20.0625 20.0625 0 0 0 58.03125 97.6875L96.09375 135.1875A19.78125 19.78125 0 0 0 123.375 136.03125L110.25 122.8125A9.375 9.375 0 0 1 110.25 109.59375A9.375 9.375 0 0 1 123.46875 109.59375L136.6875 122.71875A19.96875 19.96875 0 0 0 135.84375 96.09375zM241.96875 202.125L203.90625 164.15625A19.96875 19.96875 0 0 0 176.625 163.3125L189.75 176.53125A9.375 9.375 0 0 1 176.53125 189.75L163.3125 176.625A19.96875 19.96875 0 0 0 164.15625 203.90625L201.65625 241.96875A20.15625 20.15625 0 0 0 229.78125 241.96875L241.3125 230.4375A20.0625 20.0625 0 0 0 241.96875 202.125z" />
    <glyph glyph-name="021-attach"
      unicode="&#xF115;"
      horiz-adv-x="300" d="M103.59375 130.21875A9.375 9.375 0 0 1 110.15625 127.5A9.375 9.375 0 0 1 116.8125 130.21875A9.375 9.375 0 0 1 116.8125 143.4375L72.65625 187.5A18.75 18.75 0 0 0 67.5 203.34375A31.59375 31.59375 0 0 0 76.875 222.84375A31.875 31.875 0 0 0 96.28125 232.21875A19.5 19.5 0 0 0 112.21875 227.0625L156.375 182.90625A9.375 9.375 0 0 1 169.6875 182.90625A9.375 9.375 0 0 1 169.6875 196.125L125.625 240.65625A37.5 37.5 0 0 1 94.78125 251.25A50.90625 50.90625 0 0 1 63.75 236.25A50.53125 50.53125 0 0 1 48.84375 205.3125A38.0625 38.0625 0 0 1 59.34375 174.375zM240.5625 125.8125L196.875 169.96875A9.375 9.375 0 0 1 183.5625 169.96875A9.375 9.375 0 0 1 183.5625 156.75L227.34375 112.5C235.78125 103.96875 233.8125 88.125 222.84375 77.15625S196.125 64.2187500000001 187.5 72.7500000000001L143.34375 116.9062500000001A9.375 9.375 0 1 1 130.03125 103.6875000000001L174.28125 59.5312500000001A37.5 37.5 0 0 1 201.1875 48.84375A50.0625 50.0625 0 0 1 236.15625 63.9375C254.4375 82.21875 256.40625 109.96875 240.5625 125.8125zM190.21875 190.3125A9.375 9.375 0 0 1 203.4375 190.3125L222.1875 209.0625A9.375 9.375 0 0 1 222.1875 222.375A9.375 9.375 0 0 1 208.96875 222.375L190.21875 203.625A9.375 9.375 0 0 1 190.21875 190.3125zM206.25 178.125A9.375 9.375 0 0 1 215.625 168.75H234.375A9.375 9.375 0 0 1 234.375 187.5H215.625A9.375 9.375 0 0 1 206.25 178.125zM178.125 206.25A9.375 9.375 0 0 1 187.5 215.625V234.375A9.375 9.375 0 0 1 168.75 234.375V215.625A9.375 9.375 0 0 1 178.125 206.25zM109.5 109.6875A9.375 9.375 0 0 1 96.28125 109.6875L77.53125 90.9375A9.375 9.375 0 0 1 90.75 77.625L109.5 96.375A9.375 9.375 0 0 1 109.5 109.6875zM121.875 93.75A9.375 9.375 0 0 1 112.5 84.375V65.625A9.375 9.375 0 0 1 131.25 65.625V84.375A9.375 9.375 0 0 1 121.875 93.75zM93.75 121.875A9.375 9.375 0 0 1 84.375 131.25H65.625A9.375 9.375 0 1 1 65.625 112.5H84.375A9.375 9.375 0 0 1 93.75 121.875z" />
    <glyph glyph-name="022-smile"
      unicode="&#xF116;"
      horiz-adv-x="300" d="M150 281.25A131.25 131.25 0 1 1 281.25 150A131.390625 131.390625 0 0 1 150 281.25zM150 37.5A112.5 112.5 0 1 0 262.5 150A112.621875 112.621875 0 0 0 150 37.5zM219.665625 120.61875A9.375 9.375 0 0 1 206.85 117.1875A65.625 65.625 0 0 0 93.15 117.1875A9.375 9.375 0 1 1 76.921875 107.8125A84.375 84.375 0 0 1 223.078125 107.8125A9.375 9.375 0 0 1 219.665625 120.61875zM112.5 168.75A9.375 9.375 0 0 1 121.875 178.125V206.25A9.375 9.375 0 0 1 103.125 206.25V178.125A9.375 9.375 0 0 1 112.5 168.75zM187.5 168.75A9.375 9.375 0 0 1 196.875 178.125V206.25A9.375 9.375 0 0 1 178.125 206.25V178.125A9.375 9.375 0 0 1 187.5 168.75z" />
    <glyph glyph-name="023-moon"
      unicode="&#xF117;"
      horiz-adv-x="300" d="M238.308984375 232.03125C241.7765625 232.03125 244.5873046875 234.8419921875 244.5873046875 238.308984375C244.5873046875 241.77615234375 241.7765625 244.5868359375 238.308984375 244.5868359375C234.8419921875 244.5868359375 232.03125 241.77615234375 232.03125 238.308984375C232.03125 234.8419921875 234.8419921875 232.03125 238.308984375 232.03125zM250.8650390625 181.3892578125C254.33203125 181.3892578125 257.1427734375 184.2 257.1427734375 187.667578125C257.1427734375 191.1345703125 254.33203125 193.9453125 250.8650390625 193.9453125C247.3974609375 193.9453125 244.58671875 191.1345703125 244.58671875 187.667578125C244.58671875 184.2 247.3974609375 181.3892578125 250.8650390625 181.3892578125zM150.418359375 42.8572265625C196.1783203125 42.8572265625 236.7826171875 72.43359375 251.459765625 115.826953125C252.355078125 118.46953125 251.3923828125 121.3875 249.10546875 122.9876953125C246.825 124.5755859375 243.753515625 124.477734375 241.5708984375 122.7240234375C228.0404296875 111.81796875 211.7138671875 106.0546875 194.363671875 106.0546875C152.821875 106.0546875 118.6107421875 139.8474609375 118.6107421875 181.3892578125C118.6107421875 207.3650390625 132.2162109375 231.608203125 154.3119140625 245.5311328125C156.6779296875 247.0210546875 157.4994140625 249.90849609375 156.7212890625 252.5937890625C155.9484375 255.2790234375 153.214453125 257.14271484375 150.418359375 257.14271484375C91.5697265625 257.14271484375 42.857109375 208.84921875 42.857109375 150C42.857109375 91.15078125 91.5697265625 42.8572265625 150.418359375 42.8572265625zM162.9744140625 206.50078125C173.3595703125 206.50078125 181.808203125 198.052734375 181.808203125 187.6669921875C181.808203125 184.1970703125 184.616015625 181.3892578125 188.0859375 181.3892578125C191.555859375 181.3892578125 194.363671875 184.1970703125 194.363671875 187.6669921875C194.363671875 198.052734375 202.8123046875 206.50078125 213.1974609375 206.50078125C216.6673828125 206.50078125 219.4751953125 209.30859375 219.4751953125 212.7791015625C219.4751953125 216.2490234375 216.6673828125 219.0568359375 213.1974609375 219.0568359375C202.8123046875 219.0568359375 194.363671875 227.923828125 194.363671875 238.308984375C194.363671875 241.77896484375 191.555859375 244.5868359375 188.0859375 244.5868359375C184.616015625 244.5868359375 181.808203125 241.77896484375 181.808203125 238.308984375C181.808203125 227.923828125 173.3595703125 219.0568359375 162.9744140625 219.0568359375C159.5044921875 219.0568359375 156.69609375 216.2490234375 156.69609375 212.7791015625C156.69609375 209.30859375 159.5044921875 206.50078125 162.9744140625 206.50078125z" />
    <glyph glyph-name="024-sun"
      unicode="&#xF118;"
      horiz-adv-x="300" d="M149.8810546875 229.67578125C134.1169921875 229.6787109375 118.7056640625 225.00703125 105.5970703125 216.2513671875C92.487890625 207.4951171875 82.2697265625 195.0486328125 76.23515625 180.48515625C70.2005859375 165.9216796875 68.6197265625 149.895703125 71.6935546875 134.433984375C74.766796875 118.972265625 82.3564453125 104.7697265625 93.5021484375 93.62109375C104.6484375 82.473046875 118.8498046875 74.8810546875 134.3109375 71.804296875C149.7720703125 68.7275390625 165.798046875 70.3048828125 180.3626953125 76.3365234375C194.92734375 82.36875 207.376171875 92.583984375 216.134765625 105.6908203125C224.893359375 118.7982421875 229.5685546875 134.2083984375 229.5685546875 149.9724609375C229.546875 171.101953125 221.14453125 191.3595703125 206.20546875 206.3015625C191.26640625 221.2435546875 171.010546875 229.65 149.8810546875 229.67578125V229.67578125zM276.5718750000001 164.0373046875H257.8376953125C254.1076171875 164.0373046875 250.5298828125 162.55546875 247.892578125 159.917578125C245.2546875 157.2802734375 243.7728515625 153.7025390625 243.7728515625 149.9724609375C243.7728515625 146.2423828125 245.2546875 142.6646484375 247.892578125 140.02734375C250.5298828125 137.389453125 254.1076171875 135.9076171875 257.8376953125 135.9076171875H276.5718750000001C280.301953125 135.9076171875 283.8796875 137.389453125 286.5169921875 140.02734375C289.1548828125 142.6646484375 290.63671875 146.2423828125 290.63671875 149.9724609375C290.63671875 153.7025390625 289.1548828125 157.2802734375 286.5169921875 159.917578125C283.8796875 162.55546875 280.301953125 164.0373046875 276.5718750000001 164.0373046875V164.0373046875zM149.8810546875 56.25703125C146.1533203125 56.251171875 142.5802734375 54.767578125 139.9453125 52.130859375C137.3103515625 49.494140625 135.828515625 45.919921875 135.8255859375 42.1921875V23.43984375C135.8255859375 19.7126953125 137.30625 16.137890625 139.941796875 13.5017578125C142.57734375 10.8662109375 146.1521484375 9.385546875 149.8798828125 9.385546875C153.60703125 9.385546875 157.1818359375 10.8662109375 159.81796875 13.5017578125C162.453515625 16.137890625 163.9341796875 19.7126953125 163.9341796875 23.43984375V42.1921875C163.9318359375 45.9193359375 162.4505859375 49.4935546875 159.815625 52.1302734375C157.18125 54.7669921875 153.608203125 56.251171875 149.8810546875 56.25703125V56.25703125zM56.21794921875 149.9724609375C56.2147265625 153.7001953125 54.733125 157.2744140625 52.0981640625 159.9111328125C49.46314453125 162.5478515625 45.889921875 164.0314453125 42.1623046875 164.0373046875H23.430703125C19.70044921875 164.0373046875 16.1230078125 162.55546875 13.4853515625 159.917578125C10.8476953125 157.2802734375 9.365859375 153.7025390625 9.365859375 149.9724609375C9.365859375 146.2423828125 10.8476953125 142.6646484375 13.4853515625 140.02734375C16.1230078125 137.389453125 19.70044921875 135.9076171875 23.430703125 135.9076171875H42.16236328125C45.88998046875 135.9134765625 49.463203125 137.3970703125 52.09822265625 140.0337890625C54.73318359375 142.6705078125 56.21478515625 146.2447265625 56.21794921875 149.9724609375V149.9724609375zM149.8810546875 243.743203125C153.6087890625 243.748828125 157.1818359375 245.23271484375 159.816796875 247.869375C162.4517578125 250.50609375 163.93359375 254.0801953125 163.9365234375 257.8078125V276.56021484375C163.9365234375 280.28771484375 162.455859375 283.86251953125 159.8203125 286.4982421875C157.184765625 289.13396484375 153.6099609375 290.6146875 149.8822265625 290.6146875C146.1544921875 290.6146875 142.5796875 289.13396484375 139.944140625 286.4982421875C137.30859375 283.86251953125 135.8279296875 280.28771484375 135.8279296875 276.56021484375V257.8078125C135.8302734375 254.0804296875 137.3115234375 250.506328125 139.946484375 247.869609375C142.580859375 245.232890625 146.15390625 243.74888671875 149.8810546875 243.743203125zM236.0712890625 216.2853515625L249.33046875 229.5451171875C250.6400390625 230.848828125 251.6794921875 232.3986328125 252.3890625 234.1048828125C253.0986328125 235.8111328125 253.46484375 237.6404296875 253.4666015625 239.4884765625C253.4689453125 241.3365234375 253.10625 243.16681640625 252.399609375 244.87447265625C251.6935546875 246.58212890625 250.65703125 248.13375 249.350390625 249.4405078125C248.04375 250.74720703125 246.4921875 251.7834375 244.784765625 252.48978515625C243.0767578125 253.1961328125 241.246875 253.558828125 239.398828125 253.55701171875C237.55078125 253.5551953125 235.721484375 253.188984375 234.015234375 252.47923828125C232.308984375 251.76955078125 230.7591796875 250.73033203125 229.4548828125 249.42099609375L216.1951171875 236.1609375C214.885546875 234.856640625 213.8466796875 233.307421875 213.1365234375 231.601171875C212.426953125 229.894921875 212.0607421875 228.0650390625 212.058984375 226.2169921875C212.0572265625 224.36953125 212.419921875 222.5390625 213.1259765625 220.831640625C213.8326171875 219.1236328125 214.8685546875 217.5720703125 216.17578125 216.2654296875C217.482421875 214.9587890625 219.033984375 213.922265625 220.74140625 213.2162109375C222.4494140625 212.5095703125 224.279296875 212.1474609375 226.12734375 212.14921875C227.975390625 212.1509765625 229.8046875 212.5171875 231.5109375 213.2267578125C233.2171875 213.936328125 234.7669921875 214.97578125 236.0712890625 216.2853515625V216.2853515625zM236.06953125 83.658984375C234.765234375 84.96796875 233.2154296875 86.00625 231.5091796875 86.7158203125C229.803515625 87.425390625 227.97421875 87.791015625 226.126171875 87.7927734375C224.2787109375 87.79453125 222.448828125 87.4318359375 220.74140625 86.7251953125C219.033984375 86.019140625 217.482421875 84.9826171875 216.17578125 83.6765625C214.869140625 82.369921875 213.833203125 80.818359375 213.1271484375 79.1109375C212.4205078125 77.403515625 212.0578125 75.5736328125 212.0595703125 73.7255859375C212.061328125 71.878125 212.426953125 70.048828125 213.1365234375 68.342578125C213.8455078125 66.636328125 214.884375 65.087109375 216.193359375 63.7828125L229.453125 50.523046875C230.757421875 49.2140625 232.3072265625 48.1751953125 234.012890625 47.465625C235.719140625 46.756640625 237.5484375 46.3904296875 239.396484375 46.3892578125C241.2439453125 46.3875 243.073828125 46.7501953125 244.78125 47.45625C246.488671875 48.162890625 248.040234375 49.198828125 249.346875 50.50546875C250.6529296875 51.812109375 251.689453125 53.363671875 252.3955078125 55.0705078125C253.1021484375 56.7779296875 253.46484375 58.6083984375 253.4630859375 60.455859375C253.461328125 62.30390625 253.095703125 64.133203125 252.3861328125 65.8388671875C251.6765625 67.5451171875 250.63828125 69.094921875 249.329296875 70.39921875L236.06953125 83.658984375zM63.6908203125 83.66015625L50.431171875 70.400390625C49.121484375 69.09609375 48.08185546875 67.546875 47.37181640625 65.8400390625C46.66171875 64.1337890625 46.29521484375 62.30390625 46.29322265625 60.455859375C46.29123046875 58.6078125 46.65375 56.77734375 47.36009765625 55.0693359375C48.06650390625 53.361328125 49.102734375 51.809765625 50.40966796875 50.5025390625C51.71654296875 49.1958984375 53.26833984375 48.159375 54.97623046875 47.4533203125C56.68412109375 46.7466796875 58.51458984375 46.3845703125 60.3626953125 46.386328125C62.2107421875 46.3880859375 64.040625 46.7548828125 65.746875 47.4650390625C67.4537109375 48.1751953125 69.0029296875 49.2146484375 70.3072265625 50.52421875L83.5669921875 63.783984375C84.8759765625 65.08828125 85.91484375 66.6380859375 86.623828125 68.3443359375C87.3333984375 70.05 87.699609375 71.879296875 87.70078125 73.72734375C87.7025390625 75.5748046875 87.33984375 77.4046875 86.6337890625 79.112109375C85.9271484375 80.81953125 84.8912109375 82.37109375 83.5845703125 83.677734375C82.2779296875 84.984375 80.7263671875 86.0203125 79.0189453125 86.726953125C77.3115234375 87.4330078125 75.481640625 87.795703125 73.6341796875 87.7939453125C71.7861328125 87.7927734375 69.9568359375 87.4265625 68.251171875 86.717578125C66.544921875 86.0080078125 64.9951171875 84.969140625 63.6908203125 83.66015625zM63.692578125 216.2865234375C64.9974609375 214.979296875 66.5466796875 213.9427734375 68.25234375 213.2349609375C69.9580078125 212.5271484375 71.78671875 212.162109375 73.6330078125 212.1615234375C75.4798828125 212.1609375 77.30859375 212.5236328125 79.01484375 213.2302734375C80.72109375 213.936328125 82.271484375 214.972265625 83.576953125 216.277734375C84.8830078125 217.5837890625 85.918359375 219.1341796875 86.625 220.8404296875C87.3310546875 222.5466796875 87.6943359375 224.375390625 87.69375 226.222265625C87.6931640625 228.0685546875 87.328125 229.897265625 86.6203125 231.6029296875C85.9125 233.30859375 84.875390625 234.8578125 83.56875 236.1626953125L70.308984375 249.42251953125C69.0046875 250.73361328125 67.45546875 251.77453125 65.7486328125 252.485625C64.041796875 253.19677734375 62.211328125 253.56416015625 60.3626953125 253.56673828125C58.51359375 253.56931640625 56.6823046875 253.20703125 54.97359375 252.500625C53.2648828125 251.79421875 51.71232421875 250.75763671875 50.404921875 249.450234375C49.09751953125 248.1427734375 48.0609375 246.59021484375 47.35453125 244.88150390625C46.64818359375 243.17279296875 46.2858984375 241.3412109375 46.2884765625 239.492578125C46.29111328125 237.643359375 46.65849609375 235.8134765625 47.3696484375 234.106640625C48.08080078125 232.3998046875 49.12171875 230.85 50.4328125 229.5462890625L63.692578125 216.2865234375z" />
    <glyph glyph-name="025-train"
      unicode="&#xF119;"
      horiz-adv-x="300" d="M196.9072265625 276.5625C193.6728515625 276.5625 191.0478515625 273.9375 191.0478515625 270.703125S193.6728515625 264.84375 196.9072265625 264.84375C200.1416015625 264.84375 202.7666015625 267.46875 202.7666015625 270.703125S200.1416015625 276.5625 196.9072265625 276.5625zM103.1572265625 276.5625C99.9228515625 276.5625 97.2978515625 273.9375 97.2978515625 270.703125S99.9228515625 264.84375 103.1572265625 264.84375C106.3916015625 264.84375 109.0166015625 267.46875 109.0166015625 270.703125S106.3916015625 276.5625 103.1572265625 276.5625zM271.897265625 9.9111328125L233.124609375 50.417578125C248.7884765625 50.9789062500001 261.3603515625 63.8888671875 261.3603515625 79.6875V253.552734375C261.3603515625 263.0197265625 258.0515625 272.2646484375 252.0421875 279.584765625C246.0287109375 286.903125 237.6041015625 291.9462890625 228.3234375 293.78203125C207.52734375 297.908203125 186.235546875 300 165.038671875 300H134.08359375C113.9232421875 300 92.923828125 298.06875 71.67421875 293.821875C52.5697265625 289.9998046875 38.7041015625 273.083203125 38.7041015625 253.599609375V79.6875C38.7041015625 63.755859375 51.4892578125 50.7626953125 67.337109375 50.4076171875L28.1267578125 9.936328125C26.4890625 8.246484375 26.021484375 5.741015625 26.9396484375 3.5748046875C27.856640625 1.4080078125 29.9818359375 0 32.3349609375 0H74.2294921875C76.1080078125 0 77.872265625 0.9005859375 78.9744140625 2.4216796875L96.7482421875 26.953125H203.8376953125L221.6115234375 2.42109375C222.713671875 0.9005859375 224.478515625 0 226.3564453125 0H267.6650390625C270.01171875 0 272.131640625 1.400390625 273.0533203125001 3.5578125C273.975 5.71640625 273.5203125 8.2154296875 271.897265625 9.9111328125zM50.4228515625 79.6875V253.599609375C50.4228515625 267.5173828125 60.326953125 279.6005859375 73.9716796875 282.3310546875C93.0984375 286.1537109375 113.3091796875 288.28125 134.0830078125 288.28125H165.0380859375C185.471484375 288.28125 205.995703125 286.2650390625 226.0447265625 282.2876953125C232.6740234375 280.97578125 238.6916015625 277.3734375 242.9853515625 272.1474609375C247.27734375 266.919140625 249.641015625 260.315625 249.641015625 253.5533203125V79.6875C249.641015625 69.994921875 241.75546875 62.109375 232.062890625 62.109375H68.000390625C58.3083984375 62.109375 50.4228515625 69.994921875 50.4228515625 79.6875zM71.239453125 11.71875H46.1701171875L83.63671875 50.390625H99.258984375L71.239453125 11.71875zM105.2390625 38.671875L113.7298828125 50.390625H186.856640625L195.346875 38.671875H105.2390625zM229.346484375 11.71875L201.328125 50.390625H216.9287109375L253.9453125000001 11.71875H229.346484375zM232.0634765625 253.125H68.0009765625C64.7654296875 253.125 62.1416015625 250.501171875 62.1416015625 247.265625V150C62.1416015625 146.764453125 64.7654296875 144.140625 68.0009765625 144.140625H232.0634765625C235.2990234375 144.140625 237.9228515625 146.764453125 237.9228515625 150V247.265625C237.9228515625 250.501171875 235.2990234375 253.125 232.0634765625 253.125zM144.1728515625 155.859375H73.8603515625V241.40625H144.1728515625V155.859375zM226.2041015625 155.859375H155.8916015625V241.40625H226.2041015625V155.859375zM173.4697265625 276.5625H126.5947265625C123.3591796875 276.5625 120.7353515625 273.938671875 120.7353515625 270.703125S123.3591796875 264.84375 126.5947265625 264.84375H173.4697265625C176.7052734375 264.84375 179.3291015625 267.467578125 179.3291015625 270.703125S176.7052734375 276.5625 173.4697265625 276.5625zM214.4853515625 126.5625C201.5619140625 126.5625 191.0478515625 116.0484375 191.0478515625 103.125C191.0478515625 90.2015625 201.5619140625 79.6875 214.4853515625 79.6875C227.4087890625 79.6875 237.9228515625 90.2015625 237.9228515625 103.125C237.9228515625 116.0484375 227.4087890625 126.5625 214.4853515625 126.5625zM214.4853515625 91.40625C208.0236328125 91.40625 202.7666015625 96.66328125 202.7666015625 103.125S208.0236328125 114.84375 214.4853515625 114.84375S226.2041015625 109.58671875 226.2041015625 103.125S220.9470703125 91.40625 214.4853515625 91.40625zM85.5791015625 126.5625C72.6556640625 126.5625 62.1416015625 116.0484375 62.1416015625 103.125C62.1416015625 90.2015625 72.65625 79.6875 85.5791015625 79.6875C98.5025390625 79.6875 109.0166015625 90.2015625 109.0166015625 103.125C109.0166015625 116.0484375 98.5025390625 126.5625 85.5791015625 126.5625zM85.5791015625 91.40625C79.1173828125 91.40625 73.8603515625 96.66328125 73.8603515625 103.125S79.1173828125 114.84375 85.5791015625 114.84375S97.2978515625 109.58671875 97.2978515625 103.125S92.0408203125 91.40625 85.5791015625 91.40625zM173.4697265625 120.703125H126.5947265625C123.3591796875 120.703125 120.7353515625 118.079296875 120.7353515625 114.84375C120.7353515625 111.608203125 123.3591796875 108.984375 126.5947265625 108.984375H173.4697265625C176.7052734375 108.984375 179.3291015625 111.608203125 179.3291015625 114.84375C179.3291015625 118.079296875 176.705859375 120.703125 173.4697265625 120.703125zM173.4697265625 97.265625H126.5947265625C123.3591796875 97.265625 120.7353515625 94.641796875 120.7353515625 91.40625C120.7353515625 88.170703125 123.3591796875 85.546875 126.5947265625 85.546875H173.4697265625C176.7052734375 85.546875 179.3291015625 88.170703125 179.3291015625 91.40625C179.3291015625 94.641796875 176.705859375 97.265625 173.4697265625 97.265625z" />
    <glyph glyph-name="026-eclipse"
      unicode="&#xF11A;"
      horiz-adv-x="300" d="M135.0585963878632 91.2002525625049C123.0354334577233 108.7234462641298 116.6816735680014 129.2587243995845 116.6816735680014 150.5859345817565S123.0354334577233 192.4484228993833 135.0585963878632 209.9716166010081C142.4263029770762 220.7107531388819 151.6044644844622 229.8866259743482 162.1559176202328 237.1559132257015C157.9948454686493 237.7647386282176 153.7422211668403 238.0851732047886 149.4140654182435 238.0851732047886C101.165773460269 238.0851732047886 61.9148267952114 198.834226539731 61.9148267952114 150.5859345817565S101.165773460269 63.0866959587245 149.4140654182435 63.0866959587245C153.7422211668403 63.0866959587245 157.9948454686493 63.4071305352955 162.1559176202328 64.0182446097313C151.6044644844622 71.2852431891649 142.4263029770762 80.4611160246311 135.0585963878632 91.2002525625049zM135.0585963878632 91.2002525625049M185.5499303818346 230.2688587943137C154.2709377787293 216.0690288294732 134.257509653467 185.1814249058872 134.257509653467 150.5859345817565S154.2709377787293 85.1028403340399 185.5499303818346 70.9030103691994C215.8172649573685 84.6816977476894 236.9133040412755 115.2168239300161 236.9133040412755 150.5859345817565S215.8172649573685 216.4901714158237 185.5499303818346 230.2688587943137zM185.5499303818346 230.2688587943137M140.6250027465821 300.5859375114441H158.2031280899049V266.4070124298245H140.6250027465821zM140.6250027465821 300.5859375114441M140.6250027465821 34.7648567336886H158.2031280899049V0.585931652069H140.6250027465821zM140.6250027465821 34.7648567336886M37.1337897877693 250.4379259851158L49.5620740148843 262.8662102122307L73.7319963619531 238.6985765370816L61.3014234629184 226.268003638047zM37.1337897877693 250.4379259851158M225.0938458026142 62.4732926264315L237.5221300297291 74.9038655254662L261.6920523767979 50.7339431783974L249.2614794777633 38.3056589512825zM225.0938458026142 62.4732926264315M-0.5859375114441 159.3749972534179H33.5929875701755V141.7968719100952H-0.5859375114441zM-0.5859375114441 159.3749972534179M265.2351432663114 159.3749972534179H299.414068347931V141.7968719100952H265.2351432663114zM265.2351432663114 159.3749972534179M37.1315011158496 50.736231850317L61.3014234629184 74.9038655254662L73.7297071040958 62.4755812983513L49.5620740148843 38.3056589512825zM37.1315011158496 50.736231850317M225.0961344745339 238.6962878651619L249.263768149683 262.8662102122307L261.6943410487176 250.4356373131961L237.5244187016488 226.268003638047zM225.0961344745339 238.6962878651619" />
    <glyph glyph-name="027-drone"
      unicode="&#xF11B;"
      horiz-adv-x="300" d="M262.5 295.3125H253.125V290.625H220.3125V281.25H253.125V248.4375H248.4375A9.375 9.375 0 0 1 239.0625 239.0625V229.6875H200.896875A18.75 18.75 0 0 1 182.8125 243.75H117.1875A18.75 18.75 0 0 1 99.103125 229.6875H60.9375V239.0625A9.375 9.375 0 0 1 51.5625 248.4375H46.875V281.25H79.6875V290.625H46.875V295.3125H37.5V290.625H4.6875V281.25H37.5V248.4375H32.8125A9.375 9.375 0 0 1 23.4375 239.0625V210.9375A9.375 9.375 0 0 1 32.8125 201.5625H51.5625A9.375 9.375 0 0 1 60.9375 210.9375V220.3125H99.0984375A18.75 18.75 0 0 1 112.5 206.8453125V182.8125A51.6234375 51.6234375 0 0 1 60.9375 131.25V107.8125A4.6875 4.6875 0 0 1 65.625 103.125H79.6875V9.375A4.6875 4.6875 0 0 1 84.375 4.6875H215.625A4.6875 4.6875 0 0 1 220.3125 9.375V103.125H234.375A4.6875 4.6875 0 0 1 239.0625 107.8125V131.25A51.6234375 51.6234375 0 0 1 187.5 182.8125V206.8453125A18.75 18.75 0 0 1 200.9015625 220.3125H239.0625V210.9375A9.375 9.375 0 0 1 248.4375 201.5625H267.1875A9.375 9.375 0 0 1 276.5625 210.9375V239.0625A9.375 9.375 0 0 1 267.1875 248.4375H262.5V281.25H295.3125V290.625H262.5zM32.8125 210.9375V239.0625H51.5625V210.9375zM210.9375 14.0625H89.0625V126.5625H131.25V84.375A4.6875 4.6875 0 0 1 138.5390625 80.475L150 88.125L161.4609375 80.484375A4.6875 4.6875 0 0 1 168.75 84.375V126.5625H210.9375zM140.625 93.13125V126.5625H159.375V93.13125L152.6015625 97.65A4.6875 4.6875 0 0 1 147.3984375 97.65zM229.6875 131.25V112.5H220.3125V131.25A4.6875 4.6875 0 0 1 215.625 135.9375H84.375A4.6875 4.6875 0 0 1 79.6875 131.25V112.5H70.3125V131.25A42.234375 42.234375 0 0 0 112.5 173.4375A18.75 18.75 0 0 1 131.25 154.6875H168.75A18.75 18.75 0 0 1 187.5 173.4375A42.234375 42.234375 0 0 0 229.6875 131.25zM182.8125 215.625A4.6875 4.6875 0 0 1 178.125 210.9375V173.4375A9.375 9.375 0 0 0 168.75 164.0625H131.25A9.375 9.375 0 0 0 121.875 173.4375V210.9375A4.6875 4.6875 0 0 1 117.1875 215.625A9.375 9.375 0 0 0 117.1875 234.375H182.8125A9.375 9.375 0 0 0 182.8125 215.625zM267.1875 239.0625V210.9375H248.4375V239.0625zM150 206.25A14.0625 14.0625 0 1 1 164.0625 192.1875A14.0625 14.0625 0 0 1 150 206.25zM150 187.5A4.6875 4.6875 0 1 0 154.6875 192.1875A4.6875 4.6875 0 0 0 150 187.5z" />
    <glyph glyph-name="028-truck"
      unicode="&#xF11C;"
      horiz-adv-x="300" d="M81.25 37.5H56.25C52.8 37.5 50 40.3 50 43.75S52.8 50 56.25 50H81.25C84.7 50 87.5 47.2 87.5 43.75S84.7 37.5 81.25 37.5zM143.75 37.5H131.25C127.8 37.5 125 40.3 125 43.75S127.8 50 131.25 50H137.5V243.75C137.5 247.1875 134.7 250 131.25 250H6.25C2.8 250 0 252.8 0 256.25S2.8 262.5 6.25 262.5H131.25C141.5875 262.5 150 254.0875 150 243.75V43.75C150 40.3 147.2 37.5 143.75 37.5zM281.25 37.5H256.25C252.8 37.5 250 40.3 250 43.75S252.8 50 256.25 50H281.25C284.7 50 287.5 52.8125 287.5 56.25V175H187.5V50H206.25C209.7 50 212.5 47.2 212.5 43.75S209.7 37.5 206.25 37.5H181.25C177.8 37.5 175 40.3 175 43.75V181.25C175 184.7 177.8 187.5 181.25 187.5H293.75C297.2 187.5 300 184.7 300 181.25V56.25C300 45.9125 291.5875000000001 37.5 281.25 37.5zM93.75 100C90.3 100 87.5 102.8 87.5 106.25V218.75C87.5 222.2000000000001 90.3 225 93.75 225S100 222.2000000000001 100 218.75V106.25C100 102.8 97.2 100 93.75 100zM31.25 100C27.8 100 25 102.8 25 106.25V218.75C25 222.2000000000001 27.8 225 31.25 225S37.5 222.2000000000001 37.5 218.75V106.25C37.5 102.8 34.7 100 31.25 100zM231.25 12.5C214.025 12.5 200 26.5125 200 43.75S214.025 75 231.25 75S262.5 60.9875 262.5 43.75S248.475 12.5 231.25 12.5zM231.25 62.5C220.9125 62.5 212.5 54.0875 212.5 43.75S220.9125 25 231.25 25S250 33.4125 250 43.75S241.5875 62.5 231.25 62.5zM106.25 12.5C89.025 12.5 75 26.5125 75 43.75S89.025 75 106.25 75S137.5 60.9875 137.5 43.75S123.475 12.5 106.25 12.5zM106.25 62.5C95.9125 62.5 87.5 54.0875 87.5 43.75S95.9125 25 106.25 25S125 33.4125 125 43.75S116.5875 62.5 106.25 62.5zM31.25 12.5C14.025 12.5 0 26.5125 0 43.75S14.025 75 31.25 75S62.5 60.9875 62.5 43.75S48.475 12.5 31.25 12.5zM31.25 62.5C20.9125 62.5 12.5 54.0875 12.5 43.75S20.9125 25 31.25 25S50 33.4125 50 43.75S41.5875 62.5 31.25 62.5zM268.75 175C265.3 175 262.5 177.8 262.5 181.25C262.5 219.15 231.6625 250 193.75 250H187.5V181.25C187.5 177.8 184.7 175 181.25 175S175 177.8 175 181.25V256.25C175 259.7 177.7999999999999 262.5 181.25 262.5H193.75C238.55 262.5 275 226.05 275 181.25C275 177.8 272.2 175 268.75 175zM293.75 100H218.75C215.3 100 212.5 102.8 212.5 106.25V143.75C212.5 147.2 215.3 150 218.75 150H293.75C297.2 150 300 147.2 300 143.75S297.2 137.5 293.75 137.5H225V112.5H293.75C297.2 112.5 300 109.7 300 106.25S297.2 100 293.75 100zM181.25 37.5H143.75C140.3 37.5 137.5 40.3 137.5 43.75S140.3 50 143.75 50H181.25C184.7 50 187.5 47.2 187.5 43.75S184.7 37.5 181.25 37.5z" />
    <glyph glyph-name="029-ship"
      unicode="&#xF11D;"
      horiz-adv-x="300" d="M296.364725590172 11.443359L277.4482026400119 19.78125C268.2959902838503 23.8623045 258.0953016692091 24.9609375 248.2841302513277 22.927734L299.2143588166169 116.54003925C300.0402540340193 118.13671875 300.1193293313554 120.020508 299.4340113373574 121.681641C298.7457655727718 123.3457035 297.3575577130061 124.620117 295.6442638526347 125.16796875L275.9516327800443 130.9863285V173.9501955C275.9516327800443 177.2636715 273.2660071889452 179.9501955 269.9536392588269 179.9501955H245.9616651739577V233.9501955C245.9616651739577 237.2636715 243.2760395828586 239.9501955 239.9636716527404 239.9501955H215.9716975678711V293.9501955C215.9716975678711 297.2636715 213.286071976772 299.95019535 209.9737040466538 299.95019535H90.0138336223075C86.7014649424401 299.95019535 84.0158401010902 297.2636715 84.0158401010902 293.9501955V239.9501955H60.0238660162209C56.7114973363535 239.9501955 54.0258724950036 237.2636715 54.0258724950036 233.9501955V179.9501955H30.0338984101343C26.7215297302669 179.9501955 24.035904888917 177.2636715 24.035904888917 173.9501955V130.9863285L4.3432738163266 125.16796875C2.6270506858693 124.620117 1.2417720961895 123.3457035 0.5535255818547 121.681641C-0.1347209324801 120.020508 -0.0556454851941 118.13671875 0.7731788523444 116.54003925L51.7034074176336 22.9248045000001C41.8922359997521 24.9638670000001 31.688618115025 23.8623045000001 22.5393350289494 19.7812500000001L3.6228113290401 11.443359C1.6430048737946 10.5908205000001 0.2752989056335 8.7421875000001 0.0380731635749 6.6005857500001C-0.2020806489709 4.458984 0.7263195279599 2.3525392500001 2.4659715708602 1.083984C4.2085528838465 -0.1845704999999 6.4958734679281 -0.4218749999999 8.4610365717408 0.462891L27.3775602716501 8.8007812500001C36.6879224727348 13.025391 47.3689199120664 13.025391 56.6792813634019 8.8007812500001L58.5272961562533 7.9863285C59.8715732119712 7.3945312500001 61.2363506597955 6.896484 62.6069858980424 6.43066425L62.7534216616186 6.375C74.1285226559585 2.51953125 86.540385827431 3.0966795 97.5113255238291 7.9863285L99.3534825262579 8.80078125C108.6638447273426 13.025391 119.3448421666742 13.025391 128.6552036180096 8.80078125L130.5032184108611 7.9863285C142.9092245416602 2.44921875 157.0812416476378 2.44921875 169.4872477784369 7.9863285L171.3294047808656 8.80078125C180.6397669819503 13.025391 191.3207644212819 13.025391 200.6311258726174 8.80078125L202.4791406654688 7.9863285C214.8851467962679 2.44921875 229.0571639022455 2.44921875 241.4631700330447 7.9863285L243.3053270354734 8.80078125C252.6156892365581 13.02246075 263.2966866758897 13.02246075 272.609976647562 8.80078125L291.5265003474713 0.462891C293.491663451284 -0.427734 295.7848418257883 -0.193359 297.5274231387745 1.0751954999999C299.2729322223484 2.3437499999999 300.2042616693651 4.4531249999999 299.9611787366831 6.5976562499999C299.7210250740871 8.7421874999999 298.3474613155035 10.5937499999999 296.364725590172 11.443359zM143.9957753132633 167.9501955V166.4355465L96.0118271435248 152.255859V167.9501955zM126.0017947496114 227.9501955H173.9857429193499V179.9501955H126.0017947496114zM203.9757105254365 152.255859L155.991762355698 166.4355465V167.9501955H203.9757105254365zM14.8602628705632 115.7578125L143.9957753132634 153.9199215V136.53808575L21.646079345307 103.2832035zM155.991762355698 153.9199215L285.127274048649 115.7578125L278.3414583236543 103.2832035L155.991762355698 136.53808575zM263.9556457376097 134.53125L215.9716975678711 148.7109375V167.9501955H263.9556457376097zM233.9656781315231 179.9501955H185.9817299617846V227.9501955H233.9656781315231zM203.9757105254365 239.9501955H155.991762355698V287.9501955H203.9757105254365zM96.0118271435248 287.9501955H143.9957753132633V239.9501955H96.0118271435248zM66.0218595374382 227.9501955H114.0058077071768V179.9501955H66.0218595374382zM36.0318919313517 167.9501955H84.0158401010902V148.7109375L36.0318919313517 134.53125zM133.4963581307963 19.78125C121.090351250248 25.318359 106.9183348940196 25.318359 94.5123287632205 19.78125L92.6701710110425 18.9667965C85.0731034200784 15.5332035 76.5095618888091 14.8974607500001 68.4907596286352 17.1738285L27.5386393866592 92.44921875L143.9957753132633 124.104492V16.36816425C141.0172796945102 16.880859 138.1120015826706 17.7539062499999 135.3443721738985 18.9667965zM207.3202944285063 18.9667965L205.4722803854041 19.78125C193.0662735048558 25.318359 178.8942571486274 25.318359 166.4882510178283 19.78125L164.6460932656503 18.9667965C161.8755360862907 17.75390625 158.9702579744511 16.880859 155.991762355698 16.36816425V124.104492L272.4459690122162 92.44921875L231.4967772905769 17.1738285C223.477975030403 14.89746075 214.9144342488829 15.5332035 207.3202944285063 18.9667965zM207.3202944285063 18.9667965M199.4332845804758 101.771484L175.4413104956065 107.771484C172.2255897345941 108.57714825 168.9688666898706 106.6230465 168.1664003849113 103.40625C167.3610055596152 100.192383 169.3144538323318 96.9345705 172.5301753430934 96.12890625L196.5221494279627 90.12890625C199.7349416686383 89.3261715 202.9916647133619 91.28027325 203.7970587889087 94.494141C204.599525093868 97.7109375 202.6460768211515 100.96875 199.4332845804758 101.771484zM199.4332845804758 101.771484M199.4332845804758 83.771484L175.4413104956065 89.771484C172.2255897345941 90.57714825 168.9688666898706 88.6230465 168.1664003849113 85.40625C167.3610055596152 82.192383 169.3144538323318 78.9345705 172.5301753430934 78.12890625L196.5221494279627 72.12890625C199.7349416686383 71.3261715 202.9916647133619 73.28027325 203.7970587889087 76.494141C204.599525093868 79.7109375 202.6460768211515 82.96875 199.4332845804758 83.771484zM199.4332845804758 83.771484M124.5462271733549 107.771484L100.5542530884856 101.771484C97.338531577724 100.96875 95.3850833050074 97.7109375 96.1904781303035 94.494141C96.9929444352628 91.28027325 100.2496674799863 89.3261715 103.4653882409987 90.12890625L127.457362325868 96.12890625C130.6701545665437 96.9345705 132.6236028392602 100.192383 131.8211365343009 103.40625C131.015742458754 106.6230465 127.7590194140306 108.57714825 124.5462271733549 107.771484zM124.5462271733549 107.771484M124.5462271733549 89.771484L100.5542530884856 83.771484C97.338531577724 82.96875 95.3850833050074 79.7109375 96.1904781303035 76.494141C96.9929444352628 73.28027325 100.2496674799863 71.3261715 103.4653882409987 72.12890625L127.457362325868 78.12890625C130.6701545665437 78.9345705 132.6236028392602 82.192383 131.8211365343009 85.40625C131.015742458754 88.6230465 127.7590194140306 90.57714825 124.5462271733549 89.771484zM124.5462271733549 89.771484" />
    <glyph glyph-name="030-offline"
      unicode="&#xF11E;"
      horiz-adv-x="300" d="M218.75 0C218.025 0 217.3125 0.125 216.6125 0.375L150 24.6L83.3875 0.375C81.475 -0.325 79.325 -0.0375 77.6625 1.125C76 2.3 75 4.2125 75 6.25V24.325C75 30.825 78.3 36.775 83.8125 40.225L125 65.9625V147.0125L8.575 100.4375C6.6625 99.675 4.4625 99.9125 2.75 101.0625C1.0375 102.2375 0 104.175 0 106.25V118.225C0 128.4125 4.975 137.9875000000001 13.325 143.8250000000001L125 222V275.0000000000001C125 288.7875 136.2125 300.0000000000001 150 300.0000000000001S175 288.7875 175 275.0000000000001V222L286.675 143.8375C295.025 137.9875000000001 300 128.4125 300 118.225V106.25C300 104.175 298.9625 102.2375 297.25 101.075S293.3375 99.675 291.425 100.45L175 147.025V65.975L216.1875 40.225C221.7 36.7625 225 30.825 225 24.325V6.25C225 4.2125 224 2.3 222.3375 1.125C221.275 0.3875 220.0125 0 218.75 0zM150 37.5C150.725 37.5 151.45 37.375 152.1375 37.125L212.5 15.175V24.325C212.5 26.4875 211.4 28.475 209.5625 29.6250000000001L165.4375 57.2C163.6125 58.3375 162.5 60.35 162.5 62.5000000000001V156.2500000000001C162.5 158.3250000000001 163.5375 160.2625000000001 165.25 161.4250000000001C166.975 162.5750000000001 169.175 162.8125 171.075 162.0500000000001L287.5 115.4750000000001V118.225C287.5 124.3375 284.5125000000001 130.075 279.5 133.5875L165.1625 213.625C163.5 214.8 162.5 216.7125 162.5 218.75V275C162.5 281.8875000000001 156.8875 287.5 150 287.5S137.5 281.8875000000001 137.5 275V218.75C137.5 216.7125 136.5 214.8 134.8375 213.625L20.5 133.5875C15.4875 130.0875 12.5 124.3375 12.5 118.225V115.4750000000001L128.925 162.0500000000001C130.825 162.8375 133.025 162.5875 134.75 161.4250000000001C136.4625 160.2625000000001 137.5 158.3250000000001 137.5 156.2500000000001V62.5000000000001C137.5 60.3500000000001 136.3875 58.3375000000001 134.5625 57.2L90.4375 29.6250000000001C88.6 28.475 87.5 26.4875 87.5 24.325V15.175L147.8625 37.125C148.5500000000001 37.375 149.275 37.5 150 37.5z" />
    <glyph glyph-name="031-printer"
      unicode="&#xF11F;"
      horiz-adv-x="300" d="M256.0546875 224.4140625H247.8515625V256.0546875C247.8515625 280.2861328125 228.1376953125 300 203.90625 300H96.09375C71.8623046875 300 52.1484375 280.2861328125 52.1484375 256.0546875V224.4140625H43.9453125C19.7138671875 224.4140625 0 204.7001953125 0 180.46875V110.15625C0 85.9248046875 19.7138671875 66.2109375 43.9453125 66.2109375H52.1484375V26.3671875C52.1484375 11.8283203125 63.9767578125 0 78.515625 0H221.484375C236.0232421875 0 247.8515625 11.8283203125 247.8515625 26.3671875V66.2109375H256.0546875C280.2861328125 66.2109375 300 85.9248046875 300 110.15625V180.46875C300 204.7001953125 280.2861328125 224.4140625 256.0546875 224.4140625zM69.7265625 256.0546875C69.7265625 270.5935546875 81.5548828125 282.421875 96.09375 282.421875H203.90625C218.4451171875 282.421875 230.2734375 270.5935546875 230.2734375 256.0546875V224.4140625H69.7265625zM230.2734375 26.3671875C230.2734375 21.5208984375 226.3306640625 17.578125 221.484375 17.578125H78.515625C73.6693359375 17.578125 69.7265625 21.5208984375 69.7265625 26.3671875V113.0859375H230.2734375zM282.421875 110.15625C282.421875 95.6173828125 270.5935546875 83.7890625 256.0546875 83.7890625H247.8515625V113.0859375H253.125C257.97890625 113.0859375 261.9140625 117.02109375 261.9140625 121.875S257.97890625 130.6640625 253.125 130.6640625H46.875C42.02109375 130.6640625 38.0859375 126.72890625 38.0859375 121.875S42.02109375 113.0859375 46.875 113.0859375H52.1484375V83.7890625H43.9453125C29.4064453125 83.7890625 17.578125 95.6173828125 17.578125 110.15625V180.46875C17.578125 195.0076171875 29.4064453125 206.8359375 43.9453125 206.8359375H256.0546875C270.5935546875 206.8359375 282.421875 195.0076171875 282.421875 180.46875zM173.4375 93.1640625H126.5625C121.70859375 93.1640625 117.7734375 89.22890625 117.7734375 84.375S121.70859375 75.5859375 126.5625 75.5859375H173.4375C178.29140625 75.5859375 182.2265625 79.52109375 182.2265625 84.375S178.29140625 93.1640625 173.4375 93.1640625zM173.4375 55.6640625H126.5625C121.70859375 55.6640625 117.7734375 51.72890625 117.7734375 46.875S121.70859375 38.0859375 126.5625 38.0859375H173.4375C178.29140625 38.0859375 182.2265625 42.02109375 182.2265625 46.875S178.29140625 55.6640625 173.4375 55.6640625zM75 186.9140625H46.875C42.02109375 186.9140625 38.0859375 182.97890625 38.0859375 178.125S42.02109375 169.3359375 46.875 169.3359375H75C79.85390625 169.3359375 83.7890625 173.27109375 83.7890625 178.125S79.85390625 186.9140625 75 186.9140625z" />
    <glyph glyph-name="032-paperclip"
      unicode="&#xF120;"
      horiz-adv-x="300" d="M150 0C98.3001708984375 0 56.25 42.0501708984375 56.25 93.75V225C56.25 231.9122314453125 61.850738671875 237.4992369140625 68.7492369140625 237.4992369140625C75.6500244140625 237.4992369140625 81.2507630859375 231.9122314453125 81.2507630859375 225V93.75C81.2507630859375 55.849456640625 112.0880126953125 25.0007630859375 150 25.0007630859375S218.7492369140625 55.849456640625 218.7492369140625 93.75V231.2507630859375C218.7492369140625 255.37490859375 199.12490859375 274.9992369140625 175.0007630859375 274.9992369140625C150.8743289062501 274.9992369140625 131.25 255.37490859375 131.25 231.2507630859375V106.2492369140625C131.25 95.912933203125 139.6614076171875 87.4992369140625 150 87.4992369140625S168.75 95.912933203125 168.75 106.2492369140625V225C168.75 231.9122314453125 174.350738671875 237.4992369140625 181.2492369140625 237.4992369140625C188.1500244140625 237.4992369140625 193.7507630859375 231.9122314453125 193.7507630859375 225V106.2492369140625C193.7507630859375 82.12509140625 174.1241455078125 62.5007630859375 150 62.5007630859375S106.2492369140625 82.12509140625 106.2492369140625 106.2492369140625V231.2507630859376C106.2492369140625 269.1490171875 137.086487109375 300 175.0007630859375 300C212.912750390625 300 243.75 269.1490171875 243.75 231.2507630859376V93.75C243.75 42.0501708984375 201.6998291015625 0 150 0zM150 0" />
    <glyph glyph-name="033-attachments"
      unicode="&#xF121;"
      horiz-adv-x="300" d="M105.75 18.375A87.5 87.5 0 0 0 43.25 167.625L150 273.75A62.5 62.5 0 0 0 238.375 273.75A62.5 62.5 0 0 0 238.375 185.375L137.5 84.5A37.5 37.5 0 1 0 84.5 137.5L153.75 206.875L171.5 189.125L102.125 119.875A12.5 12.5 0 1 1 119.875 102.125L220.75 203A37.5 37.5 0 0 1 167.625 256.125L61.625 150A62.5 62.5 0 0 1 150 61.625L218.625 130.125L236.25 112.5L167.625 43.8750000000001A87.5 87.5 0 0 0 105.75 18.3750000000001z" />
    <glyph glyph-name="034-attachment"
      unicode="&#xF122;"
      horiz-adv-x="300" d="M171.4130625 234.0849375L86.35884375 149.02096875C69.48909375 132.15178125 69.48909375 104.71284375 86.35884375 87.8431875C103.22803125 70.95571875 130.68525 70.9734375 147.536625 87.8431875L219.9823125 160.288875C225.421125 165.7276875 225.421125 174.5385 219.9823125 179.9773125S205.732125 185.416125 200.2933125 179.9773125L127.8481875 107.531625C121.83778125 101.5400625 112.07540625 101.52178125 106.0471875 107.531625C100.03734375 113.54203125 100.03734375 123.32278125 106.0471875 129.332625L191.10196875 214.39603125C208.5604687500001 231.8368125 236.9516250000001 231.8368125 254.39184375 214.39603125C262.8404062500001 205.93884375 267.4993125000001 194.6985 267.4993125000001 182.74228125C267.4993125000001 170.7946875 262.8404062500001 159.5548125 254.39184375 151.0970625L158.9675625000001 55.67203125C144.9714375 41.67646875 126.3615937500001 33.97115625 106.57303125 33.97115625S68.1838125 41.67646875 54.1876875 55.67203125C25.29825 84.56146875 25.29825 131.562375 54.1876875 160.4518125L163.8353437500001 270.108C169.27415625 275.5468125 169.27415625 284.357625 163.8353437500001 289.7970000000001C158.39596875 295.2358125 149.5851562500001 295.2358125 144.1463437500001 289.7970000000001L34.4993437500001 180.14034375C-5.2499999999999 140.40075 -5.2499999999999 75.72384375 34.4993437500001 35.9836875C53.7436875000001 16.7301562500001 79.3424062500001 6.1243125 106.5731250000001 6.1243125S159.4024687500001 16.7301562500001 178.656 35.9836875L274.0808437500001 131.4085312500001C302.3895000000001 159.71775 302.3895000000001 205.7757187500001 274.0808437500001 234.0849375C245.7893437500001 262.3666875 199.7222812500001 262.4033437500001 171.4130625 234.0849375z" />
    <glyph glyph-name="036-dogecoin"
      unicode="&#xF123;"
      horiz-adv-x="300" d="M150 290.625A140.624748046875 140.624748046875 0 0 1 50.563142578125 50.5634296875A140.624748046875 140.624748046875 0 1 1 249.436857421875 249.4365703125A139.7044453125 139.7044453125 0 0 1 150 290.625zM242.807865234375 57.192421875A131.24994140625 131.24994140625 0 1 0 57.192134765625 242.807578125A131.24994140625 131.24994140625 0 1 0 242.807865234375 57.192421875zM142.254064453125 144.336328125A22.8722578125 22.8722578125 0 0 0 118.3153125 146.4615234375L120.681521484375 151.193794921875L128.6587734375 155.182494140625A4.687330078125 4.687330078125 0 0 1 128.6587734375 163.567576171875L119.2837734375 168.255076171875A4.687078125 4.687078125 0 0 1 112.5 164.0625V155.794142578125L109.77973828125 150.353625A10.4176875 10.4176875 0 0 0 103.125 155.794142578125L94.739912109375 151.60102734375A19.725 19.725 0 0 1 110.531185546875 140.732291015625A32.224265625 32.224265625 0 0 1 146.4471796875 135.951234375zM145.3125 175.78125A7.03125 7.03125 0 0 1 159.375 175.78125A7.03125 7.03125 0 0 1 145.3125 175.78125M112.5 182.8125A7.03125 7.03125 0 0 1 126.5625 182.8125A7.03125 7.03125 0 0 1 112.5 182.8125M64.646244140625 215.87448046875L57.228755859375 221.60797265625A117.841359375 117.841359375 0 0 1 48.492908203125 208.59718359375L56.6079140625 203.90281640625A108.4177734375 108.4177734375 0 0 0 64.646244140625 215.87448046875zM123.04344140625 254.41646484375L120.70655859375 263.4950625A116.802732421875 116.802732421875 0 0 1 106.0541015625 258.66796875L109.5708984375 249.97734375A107.39738671875 107.39738671875 0 0 0 123.04344140625 254.41646484375zM150 267.1875A118.774640625 118.774640625 0 0 1 135.357287109375 266.281125L136.517712890625 256.978224609375A109.407796875 109.407796875 0 0 0 150 257.8125C209.448046875 257.8125 257.8125 209.448046875 257.8125 150A107.26327734375 107.26327734375 0 0 0 235.388671875 84.26084765625L220.28776171875 118.237921875A37.3306640625 37.3306640625 0 0 1 221.068107421875 140.98091015625L206.25 192.8438203125V214.8645234375A18.724974609375 18.724974609375 0 0 1 193.429470703125 232.6515A12.2032265625 12.2032265625 0 0 1 180.8710078125 229.6875L167.27628515625 216.093064453125A81.676248046875 81.676248046875 0 0 1 144.7943671875 217.767908203125L139.635087890625 228.08647265625A19.7478515625 19.7478515625 0 0 1 121.875 239.0625A4.6875 4.6875 0 0 1 117.251302734375 235.145759765625L113.043591796875 209.900091796875A35.40882421875 35.40882421875 0 0 1 90.0506953125 183.530044921875L89.42241796875 180.38806640625A40.02997265625 40.02997265625 0 0 1 79.96330078125 143.6319375A53.391392578125 53.391392578125 0 0 1 93.796634765625 119.0018203125L64.0447265625 84.9995625A107.79997265625 107.79997265625 0 0 0 51.169681640625 193.153951171875L42.580318359375 196.909904296875A116.36858203125 116.36858203125 0 0 1 32.8125 150C32.8125 85.382654296875 85.382654296875 32.8125 150 32.8125S267.1875 85.382654296875 267.1875 150S214.617345703125 267.1875 150 267.1875zM154.12734375 42.274189453125L153.354005859375 48.4600078125A60.474322265625 60.474322265625 0 0 1 124.28687109375 93.082236328125L119.4631875 85.042763671875A51.153984375 51.153984375 0 0 0 144.051673828125 47.297255859375L144.6736640625 42.31993359375A107.586779296875 107.586779296875 0 0 0 70.103642578125 77.6879296875L100.945904296875 112.936171875A53.379328125 53.379328125 0 0 1 131.843947265625 103.125A70.25731640625 70.25731640625 0 0 1 167.9806640625 113.133984375L175.8493359375 117.85524609375L171.02565234375 125.89471875L163.157267578125 121.17345703125A60.873673828125 60.873673828125 0 0 0 131.84366015625 112.5A44.038330078125 44.038330078125 0 0 0 89.05850390625 145.90587890625A30.5903203125 30.5903203125 0 0 0 97.0645078125 174.810216796875A4.69011328125 4.69011328125 0 0 1 98.3465390625 177.20546484375L99.243755859375 181.69098046875A25.96897265625 25.96897265625 0 0 0 118.32448828125 201.70269140625A4.686873046875 4.686873046875 0 0 1 121.81121484375 205.479240234375L125.7253828125 228.963662109375A10.43089453125 10.43089453125 0 0 0 131.25 223.893357421875L137.82890625 210.736083984375A4.67958984375 4.67958984375 0 0 1 142.50553125 208.17031640625A72.4017421875 72.4017421875 0 0 0 167.61301171875 206.39019140625A4.683240234375 4.683240234375 0 0 1 172.064478515625 207.622716796875L187.5 223.057939453125A2.883984375 2.883984375 0 0 0 190.464591796875 223.7577421875A9.361880859375 9.361880859375 0 0 0 196.875 214.864541015625V192.1875A4.68558984375 4.68558984375 0 0 1 197.05524609375 190.900037109375L212.053587890625 138.40484765625A27.884765625 27.884765625 0 0 0 209.467505859375 117.0312890625L197.492701171875 96.075439453125L205.632310546875 91.424560546875L214.80854296875 107.48291015625L228.649095703125 76.341673828125A107.5389609375 107.5389609375 0 0 0 154.12734375 42.274189453125zM182.72466796875 211.70368359375L178.53212109375 203.318595703125A7.434298828125 7.434298828125 0 0 0 182.242013671875 194.362447265625L191.1357890625 191.397287109375A16.8549140625 16.8549140625 0 0 1 182.72466796875 211.70368359375z" />
    <glyph glyph-name="037-ethereum"
      unicode="&#xF124;"
      horiz-adv-x="300" d="M249.4365703125 249.4365703125A140.624548828125 140.624548828125 0 1 1 50.5634296875 50.5634296875A140.624548828125 140.624548828125 0 1 1 249.4365703125 249.4365703125zM242.807578125 57.192421875A131.249736328125 131.249736328125 0 1 0 57.192421875 242.807578125A131.249736328125 131.249736328125 0 1 0 242.807578125 57.192421875zM64.64653125 215.8750546875L57.22846875 221.607421875A117.845443359375 117.845443359375 0 0 1 48.4931953125 208.59720703125L56.608201171875 203.90283984375A108.40037109375 108.40037109375 0 0 0 64.64653125 215.8750546875zM123.04344140625 254.41646484375L120.70655859375 263.4950625A116.78733984375 116.78733984375 0 0 1 106.0541015625 258.66796875L109.5708984375 249.97734375A107.39738671875 107.39738671875 0 0 0 123.04344140625 254.41646484375zM150 267.1875A118.778126953125 118.778126953125 0 0 1 135.357287109375 266.281125L136.517712890625 256.978224609375A109.404310546875 109.404310546875 0 0 0 150 257.8125C209.448046875 257.8125 257.8125 209.448046875 257.8125 150S209.448046875 42.1875 150 42.1875S42.1875 90.551953125 42.1875 150A107.044265625 107.044265625 0 0 0 51.16996875 193.153951171875L42.58003125 196.909904296875A116.368318359375 116.368318359375 0 0 1 32.8125 150C32.8125 85.382654296875 85.382654296875 32.8125 150 32.8125S267.1875 85.382654296875 267.1875 150S214.617345703125 267.1875 150 267.1875zM101.38435546875 173.772814453125L148.25935546875 155.022814453125A4.685572265625 4.685572265625 0 0 1 151.74064453125 155.022814453125L198.61564453125 173.772814453125A4.687341796875 4.687341796875 0 0 1 200.59032421875 180.983162109375L153.71532421875 241.920662109375A4.6875 4.6875 0 0 1 146.28467578125 241.920662109375L99.40967578125 180.983162109375A4.687341796875 4.687341796875 0 0 1 101.38435546875 173.772814453125zM145.3125 166.29853125L117.32898046875 177.492140625L145.3125 185.8872421875zM154.6875 185.8872421875L182.67101953125 177.492140625L154.6875 166.29853125zM154.6875 195.675375V225.2806640625L184.29322265625 186.7937578125zM145.3125 195.675375L115.70677734375 186.793734375L145.3125 225.2806640625zM145.807458984375 58.8409453125A4.687552734375 4.687552734375 0 0 1 154.192541015625 58.8409453125L201.067541015625 152.5909453125A4.6875 4.6875 0 0 1 195.134337890625 159.039685546875L150 140.986060546875L104.86564453125 159.039685546875A4.6875 4.6875 0 0 1 98.93244140625 152.5909453125zM154.6875 80.794142578125V132.7640625L187.168693359375 145.756541015625zM145.3125 132.7640625V80.794154296875L112.831306640625 145.756529296875z" />
    <glyph glyph-name="038-bitcoin"
      unicode="&#xF125;"
      horiz-adv-x="300" d="M150 290.625A140.624548828125 140.624548828125 0 0 1 50.5634296875 50.5634296875A140.624548828125 140.624548828125 0 1 1 249.4365703125 249.4365703125A139.702798828125 139.702798828125 0 0 1 150 290.625zM242.807578125 57.192421875A131.249736328125 131.249736328125 0 1 0 57.192421875 242.807578125A131.249736328125 131.249736328125 0 1 0 242.807578125 57.192421875zM126.5625 159.375H161.653517578125A28.03845703125 28.03845703125 0 0 1 177.254103515625 164.097978515625L177.254689453125 164.098564453125A23.007826171875 23.007826171875 0 0 1 164.4922265625 206.25H126.5625A4.687728515625 4.687728515625 0 0 1 121.875 201.5625V164.0625A4.687728515625 4.687728515625 0 0 1 126.5625 159.375zM131.25 196.875H164.4922265625A13.6330078125 13.6330078125 0 0 0 172.054482421875 171.898828125A18.6962109375 18.6962109375 0 0 0 161.653505859375 168.75H131.25zM126.5625 93.75H171.907998046875A24.96676171875 24.96676171875 0 0 1 183.073423828125 141.047859375A40.606265625 40.606265625 0 0 1 165.00778125 145.3125H126.5625A4.687728515625 4.687728515625 0 0 1 121.875 140.625V98.4375A4.687728515625 4.687728515625 0 0 1 126.5625 93.75zM131.25 135.9375H165.00778125A31.18308984375 31.18308984375 0 0 0 178.880859375 132.662771484375A15.591890625 15.591890625 0 0 0 171.907998046875 103.125H131.25zM64.64653125 215.8750546875L57.22846875 221.607421875A117.845443359375 117.845443359375 0 0 1 48.4931953125 208.59720703125L56.608201171875 203.90283984375A108.40037109375 108.40037109375 0 0 0 64.64653125 215.8750546875zM123.04344140625 254.41646484375L120.70655859375 263.4950625A116.78733984375 116.78733984375 0 0 1 106.0541015625 258.66796875L109.5708984375 249.97734375A107.39738671875 107.39738671875 0 0 0 123.04344140625 254.41646484375zM150 267.1875A118.778126953125 118.778126953125 0 0 1 135.357287109375 266.281125L136.517712890625 256.978224609375A109.404310546875 109.404310546875 0 0 0 150 257.8125C209.448046875 257.8125 257.8125 209.448046875 257.8125 150S209.448046875 42.1875 150 42.1875S42.1875 90.551953125 42.1875 150A107.044265625 107.044265625 0 0 0 51.16996875 193.153951171875L42.58003125 196.909904296875A116.368318359375 116.368318359375 0 0 1 32.8125 150C32.8125 85.382654296875 85.382654296875 32.8125 150 32.8125S267.1875 85.382654296875 267.1875 150S214.617345703125 267.1875 150 267.1875zM93.75 75H112.5V60.9375A4.687728515625 4.687728515625 0 0 1 117.1875 56.25H135.9375A4.687728515625 4.687728515625 0 0 1 140.625 60.9375V75H150V60.9375A4.687728515625 4.687728515625 0 0 1 154.6875 56.25H173.4375A4.687728515625 4.687728515625 0 0 1 178.125 60.9375V75.022318359375A43.595970703125 43.595970703125 0 0 1 199.72801171875 155.62362890625A41.156431640625 41.156431640625 0 0 1 178.125 224.157140625V239.0625A4.687728515625 4.687728515625 0 0 1 173.4375 243.75H154.6875A4.687728515625 4.687728515625 0 0 1 150 239.0625V225H140.625V239.0625A4.687728515625 4.687728515625 0 0 1 135.9375 243.75H117.1875A4.687728515625 4.687728515625 0 0 1 112.5 239.0625V225H93.75A4.687728515625 4.687728515625 0 0 1 89.0625 220.3125V201.5625A4.687728515625 4.687728515625 0 0 1 93.75 196.875H98.4375V103.125H93.75A4.687728515625 4.687728515625 0 0 1 89.0625 98.4375V79.6875A4.687728515625 4.687728515625 0 0 1 93.75 75zM98.4375 93.75H103.125A4.687728515625 4.687728515625 0 0 1 107.8125 98.4375V201.5625A4.687728515625 4.687728515625 0 0 1 103.125 206.25H98.4375V215.625H117.1875A4.687728515625 4.687728515625 0 0 1 121.875 220.3125V234.375H131.25V220.3125A4.687728515625 4.687728515625 0 0 1 135.9375 215.625H154.6875A4.687728515625 4.687728515625 0 0 1 159.375 220.3125V234.375H168.75V220.130537109375A4.687283203125 4.687283203125 0 0 1 172.9740234375 215.4659296875A31.773046875 31.773046875 0 0 0 192.256177734375 161.3857265625L188.872728515625 158.002283203125A4.687916015625 4.687916015625 0 0 1 189.775658203125 150.667763671875L194.322966796875 147.9394921875A34.22047265625 34.22047265625 0 0 0 176.7168046875 84.375H173.4375A4.687728515625 4.687728515625 0 0 1 168.75 79.6875V65.625H159.375V79.6875A4.687728515625 4.687728515625 0 0 1 154.6875 84.375H135.9375A4.687728515625 4.687728515625 0 0 1 131.25 79.6875V65.625H121.875V79.6875A4.687728515625 4.687728515625 0 0 1 117.1875 84.375H98.4375z" />
    <glyph glyph-name="048-setting"
      unicode="&#xF126;"
      horiz-adv-x="300" d="M263.1375 187.5H261.9375A8.75625 8.75625 0 0 0 253.8375 193.125A8.6625 8.6625 0 0 0 255.7125 202.59375L256.565625 203.446875A27.54375 27.54375 0 0 1 256.565625 242.325L242.4 256.48125A27.515625 27.515625 0 0 1 203.53125 256.48125L202.678125 255.628125A8.9625 8.9625 0 0 0 187.5 261.928125V263.1375A27.515625 27.515625 0 0 1 160.0125 290.625H139.9875A27.515625 27.515625 0 0 1 112.5 263.1375V261.928125A8.9625 8.9625 0 0 0 97.36875 255.665625L96.5625 256.51875A27.515625 27.515625 0 0 1 57.69375 256.51875L43.48125 242.3625A27.54375 27.54375 0 0 1 43.48125 203.484375L44.334375 202.63125A8.765625 8.765625 0 0 0 46.06875 192.928125A8.6625 8.6625 0 0 0 38.0625 187.5H36.8625A27.515625 27.515625 0 0 1 9.375 160.0125V139.9875A27.515625 27.515625 0 0 1 36.8625 112.5H38.0625A8.75625 8.75625 0 0 0 46.1625 106.875A8.6625 8.6625 0 0 0 44.2875 97.40625L43.434375 96.553125A27.54375 27.54375 0 0 1 43.434375 57.675L57.590625 43.5281249999999A27.50625 27.50625 0 0 1 96.46875 43.5281249999999L97.321875 44.3812499999999A8.775 8.775 0 0 0 107.025 46.1156249999999A8.64375 8.64375 0 0 0 112.453125 38.1187499999999V36.9093749999999A27.515625 27.515625 0 0 1 139.9875 9.375H160.0125A27.515625 27.515625 0 0 1 187.5 36.8625V38.071875A8.9625 8.9625 0 0 0 202.63125 44.334375L203.484375 43.48125A27.515625 27.515625 0 0 1 242.3531250000001 43.48125L256.51875 57.628125A27.54375 27.54375 0 0 1 256.51875 96.50625L255.665625 97.359375A8.765625 8.765625 0 0 0 253.93125 107.0625A8.6625 8.6625 0 0 0 261.9375 112.5H263.1375A27.515625 27.515625 0 0 1 290.625 139.9875V160.0125A27.515625 27.515625 0 0 1 263.1375 187.5zM271.875 139.9875A8.746875 8.746875 0 0 0 263.1375 131.25H261.9375A27.7125 27.7125 0 0 1 242.409375 84.1125L243.253125 83.259375A8.75625 8.75625 0 0 0 243.253125 70.89375L229.0875 56.746875A8.7375 8.7375 0 0 0 216.73125 56.746875L215.8875 57.6A27.721875 27.721875 0 0 1 168.75 38.071875V36.8625A8.746875 8.746875 0 0 0 160.0125 28.125H139.9875A8.746875 8.746875 0 0 0 131.25 36.8625V38.071875A27.665625 27.665625 0 0 1 84.1125 57.590625L83.259375 56.7375A8.75625 8.75625 0 0 0 70.903125 56.7375L56.746875 70.884375A8.75625 8.75625 0 0 0 56.746875 83.25L57.6 84.103125A27.7125 27.7125 0 0 1 38.0625 131.25H36.8625A8.746875 8.746875 0 0 0 28.125 139.9875V160.0125A8.746875 8.746875 0 0 0 36.8625 168.75H38.0625A27.7125 27.7125 0 0 1 57.590625 215.8875L56.746875 216.740625A8.746875 8.746875 0 0 0 56.746875 229.096875L70.903125 243.2625A8.7375 8.7375 0 0 0 83.259375 243.2625L84.103125 242.409375A27.721875 27.721875 0 0 1 131.25 261.928125V263.1375A8.746875 8.746875 0 0 0 139.9875 271.875H160.0125A8.746875 8.746875 0 0 0 168.75 263.1375V261.928125A27.7125 27.7125 0 0 1 215.8875 242.409375L216.740625 243.2625A8.7375 8.7375 0 0 0 229.096875 243.2625L243.253125 229.096875A8.746875 8.746875 0 0 0 243.253125 216.740625L242.4 215.8875A27.7125 27.7125 0 0 1 261.9375 168.75H263.1375A8.746875 8.746875 0 0 0 271.875 160.0125zM150 215.625A65.625 65.625 0 1 1 215.625 150A65.7 65.7 0 0 1 150 215.625zM150 103.125A46.875 46.875 0 1 0 196.875 150A46.93125 46.93125 0 0 0 150 103.125z" />
    <glyph glyph-name="049-headset"
      unicode="&#xF127;"
      horiz-adv-x="300" d="M150 300C232.8427734375 300 300 232.8427734375 300 150S232.8427734375 0 150 0S0 67.1572265625 0 150S67.1572265625 300 150 300zM86.314453125 144.5765625V150C86.314453125 185.02734375 114.97265625 213.685546875 150 213.685546875S213.685546875 185.02734375 213.685546875 150V144.5765625H198.0732421875C192.479296875 144.5765625 187.3974609375 142.292578125 183.7177734375 138.6123046875S177.753515625 129.8507812500001 177.753515625 124.2568359375V94.4554687500001C177.753515625 88.8615234375 180.0380859375 83.7796875 183.7177734375 80.1000000000001C187.398046875 76.4203125000001 192.479296875 74.1357421875001 198.0732421875 74.1357421875001H211.053515625C215.136328125 74.1357421875001 218.8400390625 75.798046875 221.5212890625 78.4792968750001S225.8648437500001 84.8642578125001 225.8648437500001 88.9470703125001V150.0000000000001C225.8648437500001 191.7251953125001 191.7257812500001 225.8642578125001 150 225.8642578125001C108.2748046875 225.8642578125001 74.1357421875 191.7251953125001 74.1357421875 150.0000000000001V88.9470703125001C74.1357421875 84.8642578125001 75.798046875 81.1605468750001 78.4792968750001 78.4792968750001S84.8642578125 74.1357421875001 88.9470703125001 74.1357421875001H101.9273437500001C107.5212890625001 74.1357421875001 112.6025390625001 76.4203125000001 116.2828125000001 80.1000000000001C119.9625000000001 83.7796875 122.2470703125001 88.8615234375 122.2470703125001 94.4554687500001V124.2568359375C122.2470703125001 129.8507812500001 119.9625000000001 134.9326171875001 116.2828125000001 138.6123046875C112.6025390625001 142.2919921875 107.5212890625001 144.5765625 101.9273437500001 144.5765625z" />
    <glyph glyph-name="050-play"
      unicode="&#xF128;"
      horiz-adv-x="300" d="M256.0686015831135 256.0686015831135C197.4934036939314 314.6437994722956 102.5065963060686 314.6437994722956 43.9313984168865 256.0686015831135S-14.6437994722955 102.5065963060686 43.9313984168865 43.9313984168866S197.4934036939314 -14.6437994722955 256.0686015831135 43.9313984168866S314.6437994722955 197.4934036939314 256.0686015831135 256.0686015831135zM215.5408970976253 140.8179419525066L168.6807387862797 113.9050131926122L122.7704485488127 87.3087071240106C121.1873350923483 86.0422163588391 118.9709762532982 85.4089709762533 116.754617414248 85.4089709762533C110.7387862796834 85.4089709762533 105.9894459102903 90.1583113456465 105.9894459102903 96.1741424802112V150.0000000000001V204.1424802110819C105.9894459102903 206.0422163588391 106.3060686015831 207.6253298153035 107.2559366754618 209.5250659630608C110.1055408970976 214.5910290237468 116.754617414248 216.490765171504 121.8205804749341 213.3245382585753L168.047493403694 186.7282321899737C168.3641160949868 186.7282321899737 168.3641160949868 186.4116094986808 168.6807387862797 186.4116094986808L215.5408970976254 159.4986807387863C217.1240105540898 158.5488126649077 218.3905013192613 157.2823218997362 219.6569920844328 155.6992084432718C222.5065963060686 150.3166226912929 220.6068601583113 143.6675461741425 215.5408970976253 140.8179419525066z" />
    <glyph glyph-name="051-pause"
      unicode="&#xF129;"
      horiz-adv-x="300" d="M256.0686015831135 256.0686015831135C197.4934036939314 314.6437994722956 102.5065963060686 314.6437994722956 43.9313984168865 256.0686015831135S-14.6437994722955 102.5065963060686 43.9313984168865 43.9313984168866S197.4934036939314 -14.6437994722955 256.0686015831135 43.9313984168866S314.6437994722955 197.4934036939314 256.0686015831135 256.0686015831135zM132.5857519788918 116.754617414248C132.5857519788918 104.089709762533 122.4538258575198 93.957783641161 109.7889182058047 93.957783641161S86.9920844327177 104.089709762533 86.9920844327177 116.754617414248V183.245382585752C86.9920844327177 195.910290237467 97.1240105540897 206.0422163588391 109.7889182058047 206.0422163588391S132.5857519788918 195.910290237467 132.5857519788918 183.245382585752V116.754617414248zM213.3245382585752 116.754617414248C213.3245382585752 104.089709762533 203.1926121372032 93.957783641161 190.5277044854881 93.957783641161S167.730870712401 104.089709762533 167.730870712401 116.754617414248V183.245382585752C167.730870712401 195.910290237467 177.8627968337731 206.0422163588391 190.5277044854881 206.0422163588391S213.3245382585752 195.910290237467 213.3245382585752 183.245382585752V116.754617414248z" />
    <glyph glyph-name="052-next"
      unicode="&#xF12A;"
      horiz-adv-x="300" d="M234.375 281.25H253.125A28.125 28.125 0 0 0 281.25 253.125V46.875A28.125 28.125 0 0 0 253.125 18.75H234.375A28.125 28.125 0 0 0 206.25 46.875V253.125A28.125 28.125 0 0 0 234.375 281.25zM68.4375 273.375A29.625 29.625 0 0 1 18.75 251.625V48.375A29.625 29.625 0 0 1 68.4375 26.625L177.5625 127.40625A30.65625 30.65625 0 0 1 177.5625 172.59375z" />
    <glyph glyph-name="053-back"
      unicode="&#xF12B;"
      horiz-adv-x="300" d="M46.875 281.25H65.625A28.125 28.125 0 0 0 93.75 253.125V46.875A28.125 28.125 0 0 0 65.625 18.75H46.875A28.125 28.125 0 0 0 18.75 46.875V253.125A28.125 28.125 0 0 0 46.875 281.25zM251.625 281.25A29.71875 29.71875 0 0 1 231.5625 273.375L122.4375 172.59375A30.65625 30.65625 0 0 1 122.4375 127.40625L231.5625 26.625A29.625 29.625 0 0 1 281.25 48.375V251.625A29.71875 29.71875 0 0 1 251.625 281.25z" />
    <glyph glyph-name="054-shuffle"
      unicode="&#xF12C;"
      horiz-adv-x="300" d="M220.3125 215.625H225V196.875C225 193.125 226.875 189.375 230.625 188.4375C231.5625000000001 187.5 233.4375000000001 187.5 234.375 187.5C237.1875 187.5 239.0625 188.4375 240.9375 190.3125L278.4375 227.8125C282.1875 231.5625 282.1875 237.1875 278.4375 240.9375L240.9375 278.4375C238.125 281.25 234.375 282.1875 230.625 280.3125S225 275.625 225 271.875V253.125H220.3125C193.125 253.125 167.8125 238.1250000000001 154.6875 214.6875L93.75 104.0625C87.1875 91.875 75 84.375 60.9375 84.375H37.5C27.1875 84.375 18.75 75.9375 18.75 65.625S27.1875 46.875 37.5 46.875H60.9375C88.125 46.875 113.4375 61.875 126.5625 85.3125L187.5 195.9375C194.0625 208.125 207.1875 215.625 220.3125 215.625zM37.5 215.625H60.9375C75 215.625 87.1875 208.125 93.75 195.9375L108.75 168.75L130.3125 207.1875L126.5625 213.75C112.5 238.125 88.125 253.125 60.9375 253.125H37.5C27.1875 253.125 18.75 244.6875 18.75 234.375S27.1875 215.625 37.5 215.625zM240.9375 109.6875C238.125 112.5 234.375 113.4375 230.625 111.5625C226.875 110.625 225 106.875 225 103.125V84.375H220.3125C206.25 84.375 194.0625 91.875 187.5 104.0625L172.5 131.25L150.9375 92.8125L154.6875 86.25C167.8124999999999 62.8125 193.125 47.8125 220.3125 47.8125H225V29.0625C225 25.3125 226.8749999999999 21.5625 230.625 20.625C231.5625 18.7500000000001 233.4375 18.7500000000001 234.375 18.7500000000001C237.1875 18.7500000000001 239.0625 19.6875000000001 240.9374999999999 21.5625000000001L278.4375 59.0625C282.1874999999999 62.8125 282.1874999999999 68.4375 278.4375 72.1875z" />
    <glyph glyph-name="055-repeat"
      unicode="&#xF12D;"
      horiz-adv-x="300" d="M278.4375 240.9375L240.9375 278.4375C238.125 281.25 234.375 282.1875 230.625 280.3125C226.875 279.375 225 275.625 225 271.875V253.125H103.125C61.875 253.125 28.125 219.375 28.125 178.125V159.375C28.125 149.0625 36.5625 140.625 46.875 140.625S65.625 149.0625 65.625 159.375V178.125C65.625 198.75 82.5 215.625 103.125 215.625H225V196.875C225 193.125 226.875 189.375 230.625 188.4375C231.5625 187.5 233.4375 187.5 234.375 187.5C237.1875 187.5 239.0625 188.4375 240.9375 190.3125L278.4375 227.8125C282.1875 231.5625 282.1875 237.1875 278.4375 240.9375zM253.125 159.375C242.8125 159.375 234.375 150.9375 234.375 140.625V121.875C234.375 101.25 217.5 84.375 196.875 84.375H75V103.125C75 106.875 73.125 110.625 69.375 111.5625C65.625 113.4375 61.875 112.5 59.0625 109.6875L21.5625 72.1875C17.8125 68.4375 17.8125 62.8125 21.5625 59.0625L59.0625 21.5625C60.9375 19.6875 62.8125 18.75 65.625 18.75C66.5625 18.75 68.4375 18.75 69.375 19.6875C73.125 20.625 75 24.375 75 28.125V46.875H196.875C238.125 46.875 271.875 80.625 271.875 121.875V140.625C271.875 150.9375 263.4375 159.375 253.125 159.375z" />
  </font>
</defs>
</svg>
